Непобедимый / MMA / Unbeatable / Ji zhan (2013) BDRip 720p от fighttracker.ru | L1

Ответить на тему
 
Автор Сообщение

DelGado ®

Пол: Не указан

Стаж: 3 года 10 месяца

Сообщений: 68

Создавать темы 05-Сен-2017 20:10

[Цитировать]

Информация о фильме
Название: Непобедимый
Оригинальное название: MMA / Unbeatable / Ji zhan
Год выхода: 2013
Жанр: боевик, драма, спорт
Режиссер: Данте Лам
В ролях: Сингх Хартихан Битто, Ник Чун, Фейер Ли, Мей Тинг, Энди Он, Эдди Пэн, Фатих Угурлу
О фильме:
Чин Фай — бывший чемпион мира по смешанным единоборствам, который был вынужден покинуть спорт. В его жизни начались трудные времена, у него появились большие проблемы с ростовщиками, из-за чего он был вынужден уехать из Гонконга. Оказавшись в Макао, Чин знакомиться с молодым парнем по имени Линь Сыци, который мечтает выиграть чемпионат мира по смешанным единоборствам. Чин предлагает ему свою помощь в тренировочном процессе, на что молодой человек с радостью соглашается. Так бывший чемпион возвращается в мир спорта, став тренером молодого бойца. Благодаря постоянным тренировкам со своим подопечным, Чин постепенно возвращается к своей привычной жизни. Теперь он как и раньше готов сражаться за свою жизнь и жизни близких ему людей...

Выпущено: Китай, Гонконг
Продолжительность: 01:56:06
Озвучивание: Любительское (одноголосое) [Ворон]
Файл
Формат: MKV
Качество: BDRip 720p [WiKi]
Видео: 6090 kb/s, 1280x536
Аудио: Russian: AC3, 448 kb/s (6 ch) / Chinese: AC3, 640 kb/s (6 ch)
Субтитры: Russian [julz_nsk], English
Дополнительно: Сохранены оригинальные чаптеры как на Blu-ray
Размер: 5.82 GB
Скачать: Сэмпл
Релиз группы:

NFO

Общее
Unbeatable.2013.Blu.Ray.720p.CINEMANIA.mkv
Формат : Matroska
Версия формата : Version 4 / Version 2
Размер файла : 5,82 Гбайт
Продолжительность : 1 ч. 56 м.
Общий поток : 7177 Кбит/сек
Название фильма : Release Group CINEMANIA
Дата кодирования : UTC 2014-02-01 18:14:17
Программа кодирования : mkvmerge v6.7.0 ('Back to the Ground') 64bit built on Jan 8 2014 15:10:52
Библиотека кодирования : libebml v1.3.0 + libmatroska v1.4.1
Видео
Идентификатор : 1
Формат : AVC
Формат/Информация : Advanced Video Codec
Профиль формата : High@L4.1
Параметр CABAC формата : Да
Параметр ReFrames формата : 12 кадров
Идентификатор кодека : V_MPEG4/ISO/AVC
Продолжительность : 1 ч. 56 м.
Битрейт : 6090 Кбит/сек
Ширина : 1280 пикселей
Высота : 536 пикселей
Соотношение сторон : 2,40:1
Режим частоты кадров : Постоянный
Частота кадров : 24,000 кадра/сек
Цветовое пространство : YUV
Субдискретизация насыщенности : 4:2:0
Битовая глубина : 8 бит
Тип развёртки : Прогрессивная
Бит/(Пиксели*Кадры) : 0.370
Размер потока : 4,82 Гбайт (83%)
Заголовок : Release Group CINEMANIA
Библиотека кодирования : x264 core 129 r2245+704+36 8e61944 tMod+MixAQ [8-bit@4:2:0 X86_64]
Настройки программы : cabac=1 / ref=12 / deblock=1:-3:-3 / analyse=0x3:0x133 / me=umh / subme=11 / psy=1 / fade_compensate=0.00 / psy_rd=1.05:0.10 / mixed_ref=1 / me_range=32 / chroma_me=1 / trellis=2 / 8x8dct=1 / cqm=0 / deadzone=21,11 / fast_pskip=0 / chroma_qp_offset=-3 / threads=18 / lookahead_threads=3 / sliced_threads=0 / nr=0 / decimate=0 / interlaced=0 / bluray_compat=0 / constrained_intra=0 / fgo=0 / bframes=8 / b_pyramid=2 / b_adapt=2 / b_bias=0 / direct=3 / weightb=1 / open_gop=0 / weightp=2 / keyint=250 / keyint_min=24 / scenecut=40 / intra_refresh=0 / rc_lookahead=80 / rc=2pass / mbtree=1 / bitrate=6090 / ratetol=1.0 / qcomp=0.70 / qpmin=0 / qpmax=69 / qpstep=4 / cplxblur=20.0 / qblur=0.5 / ip_ratio=1.40 / aq=3 / aq-strength=0.80 / aq-sensitivity=10.00 / aq-ifactor=1.00 / aq-pfactor=1.00 / aq-bfactor=1.00 / aq2=0
Язык : Chinese
Default : Да
Forced : Нет
Коэффициенты матрицы : BT.709
Аудио #1
Идентификатор : 2
Формат : AC-3
Формат/Информация : Audio Coding 3
Расширение режима : CM (complete main)
Параметр Endianness формата : Big
Идентификатор кодека : A_AC3
Продолжительность : 1 ч. 56 м.
Вид битрейта : Постоянный
Битрейт : 448 Кбит/сек
Каналы : 6 каналов
Расположение каналов : Front: L C R, Side: L R, LFE
Частота : 48,0 КГц
Битовая глубина : 16 бит
Метод сжатия : С потерями
Размер потока : 372 Мбайт (6%)
Заголовок : Р’РѕСЂРѕРЅ
Язык : Russian
Default : Да
Forced : Да
Аудио #2
Идентификатор : 3
Формат : AC-3
Формат/Информация : Audio Coding 3
Расширение режима : CM (complete main)
Параметр Endianness формата : Big
Идентификатор кодека : A_AC3
Продолжительность : 1 ч. 56 м.
Вид битрейта : Постоянный
Битрейт : 640 Кбит/сек
Каналы : 6 каналов
Расположение каналов : Front: L C R, Side: L R, LFE
Частота : 48,0 КГц
Битовая глубина : 16 бит
Метод сжатия : С потерями
Размер потока : 531 Мбайт (9%)
Язык : Chinese
Default : Нет
Forced : Нет
Текст #1
Идентификатор : 4
Формат : UTF-8
Идентификатор кодека : S_TEXT/UTF8
Идентификатор кодека/Информация : UTF-8 Plain Text
Заголовок : julz_nsk
Язык : Russian
Default : Нет
Forced : Нет
Текст #2
Идентификатор : 5
Формат : UTF-8
Идентификатор кодека : S_TEXT/UTF8
Идентификатор кодека/Информация : UTF-8 Plain Text
Язык : English
Default : Нет
Forced : Нет
Меню
00:00:00.000 : en:00:00:00.000
00:05:28.250 : en:00:05:28.250
00:10:06.458 : en:00:10:06.458
00:17:07.041 : en:00:17:07.041
00:23:51.083 : en:00:23:51.083
00:28:57.666 : en:00:28:57.666
00:34:53.291 : en:00:34:53.291
00:39:46.000 : en:00:39:46.000
00:47:01.166 : en:00:47:01.166
00:52:21.583 : en:00:52:21.583
00:58:22.208 : en:00:58:22.208
01:07:24.791 : en:01:07:24.791
01:11:36.541 : en:01:11:36.541
01:16:10.625 : en:01:16:10.625
01:22:03.583 : en:01:22:03.583
01:27:38.541 : en:01:27:38.541
01:32:34.583 : en:01:32:34.583
01:41:35.500 : en:01:41:35.500
01:44:58.666 : en:01:44:58.666
01:52:47.166 : en:01:52:47.166
[Профиль] [ЛС]
Показать сообщения:    
Ответить на тему

Текущее время: 15-Ноя 07:49

Часовой пояс: UTC + 1



Вы не можете начинать темы
Вы не можете отвечать на сообщения
Вы не можете редактировать свои сообщения
Вы не можете удалять свои сообщения
Вы не можете голосовать в опросах
Вы не можете прикреплять файлы к сообщениям
Вы не можете скачивать файлы