2015-01-03.Kunlun.Fight.15..720p :: Fight Tracker Russia

2015-01-03.Kunlun.Fight.15..720p

Ответить на тему
 
Автор Сообщение

karchik ®

Пол: Мужской

Стаж: 2 года 5 месяцев

Сообщений: 1791

Откуда: Уругвай

Создавать темы 11-Янв-2015 19:25

[Цитировать]


Описание:
Kunlun Fight 15
Дата проведения: 03,01,15
Место проведения: Nanjing, China . Nanjing Olympic Sport Center
Язык комментариев: Китайский
Продолжительность: 02:10:58

Список поединков

Semifinal
K - 1 : Sittichai Sitsongpeenong (THA) vs Murthel Groenhart (NLD)
K - 1 : Andy Souwer (NLD) vs Jaio Fukai (CHI)
Super Fights
K - 1 : Irina Mazepa (RUS) vs Wang Kehan (CHI)
MMA : Jianping Yang (CHI) vs Fumitaka Taniyama (JAP)
K - 1 : Rico Verhoeven (NLD) vs Andrei Herasimchuk (BLR)
Final
K - 1 : ............. vs .............

Данные видео


Общее
Полное имя : 2015-01-03.Kunlun.Fight.15..720p.flv
Формат : Flash Video
Размер файла : 1,43 Гбайт
Продолжительность : 2 ч. 10 м.
Общий поток : 1568 Кбит/сек
Пометившая программа : Moyea FLV Lib
Видео
Формат : AVC
Формат/Информация : Advanced Video Codec
Профиль формата : High@L4.0
Параметр CABAC формата : Да
Параметр ReFrames формата : 8 кадров
Идентификатор кодека : 7
Продолжительность : 2 ч. 10 м.
Битрейт : 1497 Кбит/сек
Ширина : 33 пикселя
Ширина оригинала : 1280 пикселей
Высота : 10 пикселей
Высота оригинала : 720 пикселей
Соотношение сторон : 16:9
Режим частоты кадров : Постоянный
Частота кадров : 25,000 кадров/сек
Цветовое пространство : YUV
Субдискретизация насыщенности : 4:2:0
Битовая глубина : 8 бит
Тип развёртки : Прогрессивная
Бит/(Пиксели*Кадры) : 181.455
Размер потока : 1,37 Гбайт (95%)
Библиотека кодирования : qiyi.com vtc-test
Основные цвета : BT.709
Характеристики трансфера : BT.709
Коэффициенты матрицы : BT.709
Аудио
Формат : AAC
Формат/Информация : Advanced Audio Codec
Профиль формата : HE-AAC / LC
Идентификатор кодека : 10
Продолжительность : 2 ч. 10 м.
Битрейт : 65,0 Кбит/сек
Каналы : 2 канала
Расположение каналов : Front: L R
Частота : 44,1 КГц / 22,05 КГц
Метод сжатия : С потерями
Задержка видео : 80 мс.
Размер потока : 60,9 Мбайт (4%)

Скриншоты




[Профиль] [ЛС]
Показать сообщения:    
Ответить на тему

Текущее время: 23-Май 09:57

Часовой пояс: UTC + 1



Вы не можете начинать темы
Вы не можете отвечать на сообщения
Вы не можете редактировать свои сообщения
Вы не можете удалять свои сообщения
Вы не можете голосовать в опросах
Вы не можете прикреплять файлы к сообщениям
Вы не можете скачивать файлы