2017-05-06.Mix.Fight.Gala.XXI.1080p.Rus.WebDL

Ответить на тему
 
Автор Сообщение

quest195 ®

Пол: Не указан

Стаж: 1 год 7 месяца

Сообщений: 167

Создавать темы 26-Окт-2019 09:15

[Цитировать]


Описание:
-
Место проведения: Heilbronn,Germany
Язык комментариев: русский-При размещении на других ресурсах,
просьба не менять название файла.

Список Поединков

Sergej Braun vs Akam Tarageh Semifinal
Marco Pleschberger vs Regian Eersel Semifinal
Damian Johansen vs Nuri Kacar
Chris Whittle vs Juri Kehl
Pitti Saengwilai vs Omer Kocak
Pierre Woloszynski vs Hicham Elhajji
Oskar Sokolowski vs Jerome Heinz
Vladislav Tuinov vs Sebastian Mendez
.......... vs .......... Final

Данные видео

2017-05-06.Mix.Fight.Gala.XXI.1080p.Rus.WebDL.mkv':
Metadata:
ENCODER : Lavf58.29.100
Duration: 02:59:06.49, start: 0.000000, bitrate: 4326 kb/s
Stream #0:0: Video: h264 (High), yuv420p(progressive), 1920x1080 [SAR 1:1 DAR 16:9], 25 fps, 25 tbr, 1k tbn, 50 tbc (default)
Stream #0:1: Audio: aac (LC), 44100 Hz, stereo, fltp (default)

Скриншоты



[Профиль] [ЛС]
Показать сообщения:    
Ответить на тему

Текущее время: 12-Ноя 14:26

Часовой пояс: UTC + 1



Вы не можете начинать темы
Вы не можете отвечать на сообщения
Вы не можете редактировать свои сообщения
Вы не можете удалять свои сообщения
Вы не можете голосовать в опросах
Вы не можете прикреплять файлы к сообщениям
Вы не можете скачивать файлы