M-1 Challenge 100 720 HDTV ENG

Ответить на тему
 
Автор Сообщение

IronFist ®

Пол: Мужской

Стаж: 2 месяца 19 дня

Сообщений: 15

Создавать темы 03-Янв-2019 23:08

[Цитировать]


Описание: M-1 Challenge 100: Битва в Атырау
Дата: 15 декабря 2018 г.
Место: Атырау, Казахстан
Качество видео: HDTV
Язык: Английский

Кард

Нэйт Ландвер - Андрей Лежнев
Сергей Морозов - Б. Дуишобаев
Даниил Приказа - Эдуардо Рамон
Каыцк Аленцар - Т. Жумагалиев
Рафал Киянцзук - Г. Кукхалашвили
М. Абдуракхманов - Брандон Белл
Кхамзат Далгиев - Баяман Нурмамат
Михаил Кузнетсов - Н. Кабдракхманов
Абылаи Толеш - Сергеы Клюев
Асу Алмабаев - Кирил Фоменков
Василий Козлов - Георгий Акошвили
Сабит Жусупов - Мате Саникидзе

Технические характеристики

General
Complete name : M1 Challenge 100.mp4
Format : MPEG-4
Format profile : Base Media
Codec ID : isom (isom)
File size : 4.65 GiB
Duration : 5 h 3 min
Overall bit rate mode : Variable
Overall bit rate : 2 197 kb/s
Encoded date : UTC 2018-12-18 07:05:22
Tagged date : UTC 2018-12-18 07:05:22
Video
ID : 1
Format : AVC
Format/Info : Advanced Video Codec
Format profile : Main@L3.1
Format settings, CABAC : Yes
Format settings, ReFrames : 3 frames
Codec ID : avc1
Codec ID/Info : Advanced Video Coding
Duration : 5 h 3 min
Source duration : 5 h 3 min
Bit rate mode : Constant
Bit rate : 2 000 kb/s
Maximum bit rate : 3 723 kb/s
Width : 1 280 pixels
Height : 720 pixels
Display aspect ratio : 16:9
Frame rate mode : Variable
Frame rate : 25.000 FPS
Minimum frame rate : 5.176 FPS
Maximum frame rate : 75.773 FPS
Standard : NTSC
Color space : YUV
Chroma subsampling : 4:2:0
Bit depth : 8 bits
Scan type : Progressive
Bits/(Pixel*Frame) : 0.087
Stream size : 4.23 GiB (91%)
Source stream size : 4.23 GiB (91%)
Title : Telestream Inc. Dib Library - ReleaseWirecast 2014.48.143538
Encoded date : UTC 2018-12-15 12:05:46
Tagged date : UTC 2018-12-18 07:13:10
Color range : Limited
Audio
ID : 2
Format : AAC
Format/Info : Advanced Audio Codec
Format profile : LC
Codec ID : 40
Duration : 5 h 3 min
Source duration : 5 h 3 min
Bit rate mode : Variable
Bit rate : 192 kb/s
Maximum bit rate : 200 kb/s
Channel(s) : 2 channels
Channel positions : Front: L R
Sampling rate : 44.1 kHz
Frame rate : 43.066 FPS (1024 spf)
Compression mode : Lossy
Stream size : 416 MiB (9%)
Source stream size : 416 MiB (9%)
Title : Telestream Inc. Dib Library - ReleaseWirecast 2014.48.143538
Encoded date : UTC 2018-12-15 12:05:46
Tagged date : UTC 2018-12-18 07:13:10

Скриншоты





Последний раз редактировалось: IronFist (2019-01-04 15:29), всего редактировалось 2 раз(а)
[Профиль] [ЛС]

karchik

Пол: Мужской

Стаж: 4 года 3 месяца

Сообщений: 2417

Откуда: Уругвай

Создавать темы 03-Янв-2019 23:42 (спустя 34 минуты)

[Цитировать]

Спасибо за раздачу!! Круто. Только число бы еще проведения турнира.
[Профиль] [ЛС]

IronFist ®

Пол: Мужской

Стаж: 2 месяца 19 дня

Сообщений: 15

Создавать темы 03-Янв-2019 23:52 (спустя 10 минуты)

[Цитировать]

22081Спасибо за раздачу!! Круто. Только число бы еще проведения турнира.
Готово. Можно золото?
[Профиль] [ЛС]

brunoniko

Пол: Мужской

Стаж: 1 год 4 месяца

Сообщений: 7

Откуда: Ростов на Дону

Создавать темы 04-Янв-2019 10:43 (спустя 10 часа)

[Цитировать]

язык . русский? По моему английский . Комментарий английский
[Профиль] [ЛС]

IronFist ®

Пол: Мужской

Стаж: 2 месяца 19 дня

Сообщений: 15

Создавать темы 04-Янв-2019 15:32 (спустя 4 часа)

[Цитировать]

22083язык . русский? По моему английский . Комментарий английский
Вы правы, исправил. Никак не отойду после праздников...
[Профиль] [ЛС]
Показать сообщения:    
Ответить на тему

Текущее время: 22-Мар 07:48

Часовой пояс: UTC + 1



Вы не можете начинать темы
Вы не можете отвечать на сообщения
Вы не можете редактировать свои сообщения
Вы не можете удалять свои сообщения
Вы не можете голосовать в опросах
Вы не можете прикреплять файлы к сообщениям
Вы не можете скачивать файлы