2018-02-24.KOK.World.GP.54.Rus.1080p.WebDL-FTR

Ответить на тему
 
Автор Сообщение

quest195 ®

Пол: Не указан

Стаж: 8 месяца 8 дня

Сообщений: 113

Создавать темы 06-Дек-2018 10:13

[Цитировать]


Описание:
-
Место проведения: Riga, Latvia
Язык комментариев: русский-При размещении на других ресурсах,
просьба не менять название файла.

Список Поединков

Camil Pawlak vs Vjaceslavs Tevnis -- Semifinal
Vitalie Matei vs Youssef Chaikh -- Semifinal
Jurijs Orlovs vs Beni Osmanowski
Mike Sprangh vs Raimonds Aukstikalnis
.......... vs .......... -- Final
Moucine Chafi vs Zaurs Dzavadovs

Данные видео

2018-02-24.KOK.World.GP.54.Rus.1080p.WebDL-FTR.mkv':
Metadata:
ENCODER : Lavf58.12.100
Duration: 02:15:32.48, start: 0.000000, bitrate: 4300 kb/s
Stream #0:0: Video: h264 (High), yuv420p(progressive), 1920x1080 [SAR 1:1 DAR 16:9], 25 fps, 25 tbr, 1k tbn, 50 tbc (default)
Metadata:
DURATION : 02:15:32.477000000
Stream #0:1: Audio: aac (LC), 44100 Hz, stereo, fltp (default)
Metadata:
DURATION : 02:15:32.463000000

Скриншоты



[Профиль] [ЛС]
Показать сообщения:    
Ответить на тему

Текущее время: 10-Дек 13:40

Часовой пояс: UTC + 1



Вы не можете начинать темы
Вы не можете отвечать на сообщения
Вы не можете редактировать свои сообщения
Вы не можете удалять свои сообщения
Вы не можете голосовать в опросах
Вы не можете прикреплять файлы к сообщениям
Вы не можете скачивать файлы