2017-09-16.Konin.Fight.Night.1080p.Rus.WebDL-FTR

Ответить на тему
 
Автор Сообщение

quest195 ®

Пол: Не указан

Стаж: 8 месяца 8 дня

Сообщений: 114

Создавать темы 30-Ноя-2018 17:56

[Цитировать]


Описание:
-
Место проведения: Konin, Polland
Язык комментариев: русский-При размещении на других ресурсах,
просьба не менять название файла.

Список Поединков

Kamil Piechocki vs Hubert Rutkowski -- K-1
Oliwier Szczygiel vs Fryderyk Sztuba -- BJJ
Jan Kwiaton vs Robert Adamczyk -- MMA
Szymon Kazmierczak vs Dawid Drzewiecki -- K-1
Roland Osozland vs Kamil Gardzielik -- Boxing
Bartlomiej Grafka vs Aleksandr "Alex” Strecki -- Boxing

Данные видео

2017-09-16.Konin.Fight.Night.1080p.Rus.WebDL-FTR.m2ts':
Duration: 01:59:43.52, start: 1.400000, bitrate: 4781 kb/s
Metadata:
Stream #0:0[0x100]: Video: h264 (High) ([27][0][0][0] / 0x001B), yuv420p(progressive), 1920x1080 [SAR 1:1 DAR 16:9], 25 fps, 25 tbr, 90k tbn, 50 tbc
Stream #0:1[0x101]: Audio: aac (LC) ([15][0][0][0] / 0x000F), 44100 Hz, stereo, fltp, 249 kb/s

Скриншоты



[Профиль] [ЛС]

American KGB

Пол: Мужской

Стаж: 3 года 10 месяца

Сообщений: 3223

Откуда: Лубянка

Создавать темы 30-Ноя-2018 18:23 (спустя 27 минуты)

[Цитировать]

спасибо бро, завтра заберу, ок?
[Профиль] [ЛС]

quest195 ®

Пол: Не указан

Стаж: 8 месяца 8 дня

Сообщений: 114

Создавать темы 30-Ноя-2018 19:15 (спустя 51 минута)

[Цитировать]

Пожалуйста .Конечно.Без проблем.У меня место есть пока ещё.
[Профиль] [ЛС]
Показать сообщения:    
Ответить на тему

Текущее время: 10-Дек 14:29

Часовой пояс: UTC + 1



Вы не можете начинать темы
Вы не можете отвечать на сообщения
Вы не можете редактировать свои сообщения
Вы не можете удалять свои сообщения
Вы не можете голосовать в опросах
Вы не можете прикреплять файлы к сообщениям
Вы не можете скачивать файлы