SUPERKOMBAT World Grand Prix.Stage 4 [01.08.2015 MPEG-TS 576p RU]

Ответить на тему
 
Автор Сообщение

Romapunk ®

Пол: Мужской

Стаж: 2 года 7 месяцев

Сообщений: 599

Откуда: Вологодская область

Создавать темы 04-Авг-2015 08:58

[Цитировать]


Описание: SUPERKOMBAT World Grand Prix.Stage 4[01.08.2015 MPEG-TS 576p RU]
Дата проведения: 01/08/2015
Место проведения: Румыния
Язык комментариев: Русский

Список поединков

Main Card (Eurosport)
13. Super cruiserweight Netherlands Fred Sikking vs. Romania Andrei Stoica Headline Event; SUPERKOMBAT Super cruiserweight Championship
12. Heavyweight Russia Viktor Bugotzki vs. Romania Raul Cătinaș
11. Cruiserweight Suriname Fabio Kwasi vs. Romania Bogdan Stoica
10. Super middleweight Turkey Atakan Arslan vs. Romania Alex Filip
9. Light heavyweight Angola Aristote Quitusisa vs. Romania Alexandru Nedelcu
8. Cruiserweight Turkey Gökhan Gedik vs. Romania Robert Dorin
SUPERKOMBAT New Heroes Card (Sport.ro Channel)
7. Lightweight Angola Wilmer da Cruz vs. Romania Iuliu Man
6. Women's Lightweight Italy Jessica Puglisi vs. Romania Cristiana Stancu
5. Middleweight Romania Andrei Ostrovanu vs. Romania Cristian Milea
4. Welterweight Angola Razel Souza vs. Italy Mario Argento
3. Lightweight Switzerland Rahim Moutharrik vs. Romania Cristian Spetcu
2. Middleweight Romania Eduard Chelariu vs. Romania Mădălin Crăciunică
1. Light Heavyweight Romania Alexandru Negrea vs. Romania Dumitru Țopai

Данные видео

General
ID : 36116 (0x8D14)
Complete name : SUPERKOMBAT World Grand Prix.Stage 4[01.08.2015 MPEG-TS 576p RU]\1 Часть SUPERKOMBAT World Grand Prix.Stage 4[01.08.2015 MPEG-TS 576p RU].ts
Format : MPEG-TS
File size : 1.33 GiB
Duration : 1h 59mn
Overall bit rate mode : Variable
Overall bit rate : 1 583 Kbps
Video
ID : 95 (0x5F)
Menu ID : 1 (0x1)
Format : AVC
Format/Info : Advanced Video Codec
Format profile : High@L3
Format settings, CABAC : Yes
Format settings, ReFrames : 4 frames
Codec ID : 27
Duration : 1h 59mn
Bit rate : 1 372 Kbps
Width : 720 pixels
Height : 576 pixels
Display aspect ratio : 16:9
Frame rate : 25.000 fps
Standard : PAL
Color space : YUV
Chroma subsampling : 4:2:0
Bit depth : 8 bits
Scan type : Progressive
Bits/(Pixel*Frame) : 0.132
Stream size : 1.15 GiB (87%)
Writing library : x264 core 124
Audio
ID : 94 (0x5E)
Menu ID : 1 (0x1)
Format : MPEG Audio
Format version : Version 1
Format profile : Layer 3
Codec ID : 3
Duration : 1h 59mn
Bit rate mode : Constant
Bit rate : 128 Kbps
Channel(s) : 1 channel
Sampling rate : 44.1 KHz
Compression mode : Lossy
Delay relative to video : -68ms
Stream size : 110 MiB (8%)
Language : Russian
[Профиль] [ЛС]

Romapunk ®

Пол: Мужской

Стаж: 2 года 7 месяцев

Сообщений: 599

Откуда: Вологодская область

Создавать темы 04-Авг-2015 09:04 (спустя 6 минут)

[Цитировать]

Друзья,это мой последний релиз.Был рад стараться.Может в горечь,а может в радость.Но в любом случае я отошел от мира единоборств.Были внезапные мгновения любви к этим искусствам.Все прошло-цветы завяли и началась обычная будничная жизнь.Может для кого-то и сделал что-то полезное.Я устал....Я ухожу.....
[Профиль] [ЛС]

Чипсоед

Пол: Не указан

Стаж: 2 года

Сообщений: 8

Создавать темы 04-Авг-2015 13:28 (спустя 4 часа)

[Цитировать]

Не больно то и нужен был...)
[Профиль] [ЛС]

karchik

Пол: Мужской

Стаж: 2 года 8 месяцев

Сообщений: 1873

Откуда: Уругвай

Создавать темы 04-Авг-2015 14:34 (спустя 1 час 6 минут)

[Цитировать]

))) а на другом трекере зачем новый ник тогда создавать? ( не обязательно отвечать )
[Профиль] [ЛС]

zorro

Пол: Женский

Стаж: 2 года 6 месяцев

Сообщений: 1873

Откуда: アラスカ、ロシア

Создавать темы 04-Авг-2015 14:56 (спустя 22 минуты)

[Цитировать]

Я так понял, что Рома уходит, а Андрюша остаётся))))
[Профиль] [ЛС]

Чипсоед

Пол: Не указан

Стаж: 2 года

Сообщений: 8

Создавать темы 04-Авг-2015 18:54 (спустя 3 часа)

[Цитировать]

1947Я так понял, что Рома уходит, а Андрюша остаётся))))
Позови меня,когда Федя чемпом ГАСа станет...
[Профиль] [ЛС]
Показать сообщения:    
Ответить на тему

Текущее время: 21-Авг 15:03

Часовой пояс: UTC + 1



Вы не можете начинать темы
Вы не можете отвечать на сообщения
Вы не можете редактировать свои сообщения
Вы не можете удалять свои сообщения
Вы не можете голосовать в опросах
Вы не можете прикреплять файлы к сообщениям
Вы не можете скачивать файлы