ONE Championship 82: Pursuit of Greatness (Full Event) [26.10.2018, MMA, 25fps, WEBRip 720p, ENG]

Ответить на тему
 
Автор Сообщение

plarin ®

Пол: Мужской

Стаж: 3 года 10 месяца

Сообщений: 851

Откуда: Мадрид

Создавать темы 29-Окт-2018 08:29

[Цитировать]

ONE Championship 82: Pursuit of Greatness (Full Event)- Формат: WEBRip 720p, MР4, H.264, AAC
Год выпуска: 26.10.2018
Вид спорта: ММА
Продолжительность: 03:51:53
Язык комментариев: Английский-Описание: Все бои турнира от "ONE Championship 82: Pursuit of Greatness", прошедшего 26 октября 2018 года в "Thuwunna Indoor Stadium", Лос Анджелес, Калифорния, США-Видео: 1280x720 (16:9), 25,000 fps, AVC, ~2698 kbps avg, ~0.117 bit/pixel
Аудио: 44.1 kHz, AAC, 2/0 (L,R), ~192.00 kbps avg-Внимание, есть видео и аудио реклама от спонсора показа (Pre-roll)-

Кард

Main Card
Aung La Nsang vs. Mohammad Karaki [185 lbs] *ONE Middleweight Championship
Rafael Nunes vs. Movlid Khaibulaev [145 lbs]
Phoe Thaw vs. Keanu Subba [145 lbs]
Emilio Urrutia vs. Kazuki Tokudome [145 lbs]
Ye Thway Ne vs. Mite Yine [115 lbs]-Preliminary Card
Luis Santos vs. Daichi Abe [170 lbs]
Xu Dong Ma vs. Ahmad Qais Jasoor [135 lbs]
Rudy Agustian vs. Kaji Ebin [125 lbs]

MediaINFO

General
Complete name               : E:\uTorrent.Temp\Temp\ONE.Championship.82.Pursuit.of.Greatness.25fps.720p.WEBRip.x264-Eng.mp4
Format                      : MPEG-4
Format profile              : Base Media / Version 2
Codec ID                    : mp42 (mp42/mp41)
File size                   : 4.68 GiB
Duration                    : 3 h 51 min
Overall bit rate mode       : Variable
Overall bit rate            : 2 892 kb/s
Encoded date                : UTC 2018-10-27 15:37:38
Tagged date                 : UTC 2018-10-27 16:54:47
TIM                         : 00:00:00:00
TSC                         : 25
TSZ                         : 1
Video
ID                          : 1
Format                      : AVC
Format/Info                 : Advanced Video Codec
Format profile              : Main@L4.1
Format settings             : CABAC / 4 Ref Frames
Format settings, CABAC      : Yes
Format settings, ReFrames   : 4 frames
Codec ID                    : avc1
Codec ID/Info               : Advanced Video Coding
Duration                    : 3 h 51 min
Bit rate                    : 2 698 kb/s
Width                       : 1 280 pixels
Height                      : 720 pixels
Display aspect ratio        : 16:9
Frame rate mode             : Constant
Frame rate                  : 25.000 FPS
Standard                    : PAL
Color space                 : YUV
Chroma subsampling          : 4:2:0
Bit depth                   : 8 bits
Scan type                   : Progressive
Bits/(Pixel*Frame)          : 0.117
Stream size                 : 4.37 GiB (93%)
Language                    : English
Encoded date                : UTC 2018-10-27 15:37:38
Tagged date                 : UTC 2018-10-27 15:37:38
Color range                 : Limited
Color primaries             : BT.709
Transfer characteristics    : BT.709
Matrix coefficients         : BT.709
Codec configuration box     : avcC
Audio
ID                          : 2
Format                      : AAC LC
Format/Info                 : Advanced Audio Codec Low Complexity
Codec ID                    : mp4a-40-2
Duration                    : 3 h 51 min
Bit rate mode               : Variable
Bit rate                    : 192 kb/s
Maximum bit rate            : 300 kb/s
Channel(s)                  : 2 channels
Channel layout              : L R
Sampling rate               : 48.0 kHz
Frame rate                  : 46.875 FPS (1024 SPF)
Compression mode            : Lossy
Stream size                 : 314 MiB (7%)
Language                    : English
Encoded date                : UTC 2018-10-27 15:37:39
Tagged date                 : UTC 2018-10-27 15:37:39

Скриншоты

[Профиль] [ЛС]

tolik888

Пол: Не указан

Стаж: 1 год 3 месяца

Сообщений: 6

Создавать темы 29-Окт-2018 14:45 (спустя 6 часа)

[Цитировать]

спасибо , я получается 80й и 81й турнир пропустил .
к сожалению приложение one championship отказывается выводить картинку с турниром на телевизор самсунг со смартфона , а на смартфоне смотреть эфир , сами понимаете , глаза устанут , поэтому всегда жду ваши релизы по этой организации , смотрю на большом телевизоре , спасибо за труды!
[Профиль] [ЛС]
Показать сообщения:    
Ответить на тему

Текущее время: 15-Ноя 06:50

Часовой пояс: UTC + 1



Вы не можете начинать темы
Вы не можете отвечать на сообщения
Вы не можете редактировать свои сообщения
Вы не можете удалять свои сообщения
Вы не можете голосовать в опросах
Вы не можете прикреплять файлы к сообщениям
Вы не можете скачивать файлы