Road to M-1 China [ 25.07.2015 CHN]

Ответить на тему
 
Автор Сообщение

Romapunk ®

Пол: Мужской

Стаж: 2 года 10 месяцев

Сообщений: 740

Откуда: Вологодская область

Создавать темы 31-Июл-2015 11:56

[Цитировать]


Описание: Road to M-1 China
Дата проведения: 25/07/2015
Место проведения: Китай
Язык комментариев: Китайский
Продолжительность: 03:30:00

Данные видео

General
Complete name : Road to M-1 China [ 25.07.2015 CHN] WEB-DL-Romapunk.mp4
Format : MPEG-4
Format profile : Base Media
Codec ID : isom
File size : 1.39 GiB
Duration : 3h 30mn
Overall bit rate mode : Variable
Overall bit rate : 948 Kbps
Video
ID : 1
Format : AVC
Format/Info : Advanced Video Codec
Format profile : High@L3.1
Format settings, CABAC : Yes
Format settings, ReFrames : 4 frames
Codec ID : avc1
Codec ID/Info : Advanced Video Coding
Duration : 3h 30mn
Source duration : 3h 30mn
Bit rate : 817 Kbps
Nominal bit rate : 1 500 Kbps
Width : 1 280 pixels
Height : 720 pixels
Display aspect ratio : 16:9
Frame rate mode : Constant
Frame rate : 25.000 fps
Color space : YUV
Chroma subsampling : 4:2:0
Bit depth : 8 bits
Scan type : Progressive
Bits/(Pixel*Frame) : 0.035
Stream size : 1.20 GiB (86%)
Source stream size : 1.20 GiB (86%)
Writing library : x264()-core 129 - H.264/MPEG-4
Audio
ID : 2
Format : AAC
Format/Info : Advanced Audio Codec
Format profile : LC
Codec ID : 40
Duration : 3h 30mn
Source duration : 3h 30mn
Bit rate mode : Variable
Bit rate : 126 Kbps
Channel(s) : 2 channels
Channel positions : Front: L R
Sampling rate : 44.1 KHz
Compression mode : Lossy
Stream size : 189 MiB (13%)
Source stream size : 189 MiB (13%)

Скриншоты




[Профиль] [ЛС]

Superserafim

Пол: Мужской

Стаж: 2 года 10 месяцев

Сообщений: 2489

Создавать темы 21-Авг-2015 16:22 (спустя 21 день)

[Цитировать]

Закрыто по просьбе правообладетеля
[Профиль] [ЛС]
Показать сообщения:    
Ответить на тему

Текущее время: 19-Ноя 18:49

Часовой пояс: UTC + 1



Вы не можете начинать темы
Вы не можете отвечать на сообщения
Вы не можете редактировать свои сообщения
Вы не можете удалять свои сообщения
Вы не можете голосовать в опросах
Вы не можете прикреплять файлы к сообщениям
Вы не можете скачивать файлы