Hero Legends China vs Japan. Finals in Japan [2015.07.24 378p CHN] :: Fight Tracker Russia

Hero Legends China vs Japan. Finals in Japan [2015.07.24 378p CHN]

Ответить на тему
 
Автор Сообщение

Romapunk ®

Пол: Мужской

Стаж: 2 года 4 месяца

Сообщений: 505

Откуда: Вологодская область

Создавать темы 31-Июл-2015 09:09

[Цитировать]


Описание: Hero Legends China vs Japan. Finals in Japan
Дата проведения: 24/07/2015
Место проведения: Япония
Язык комментариев: Китайский
Продолжительность: 03:00:00

Данные видео

General
Complete name : Hero Legends China vs Japan. Finals in Japan [2015.07.24 378p CHN] WEB-DL-Romapunk.mp4
Format : MPEG-4
Format profile : Base Media
Codec ID : isom
File size : 730 MiB
Duration : 3h 4mn
Overall bit rate : 553 Kbps
Writing application : Lavf56.40.100
Video
ID : 1
Format : AVC
Format/Info : Advanced Video Codec
Format profile : High@L3
Format settings, CABAC : Yes
Format settings, ReFrames : 3 frames
Codec ID : avc1
Codec ID/Info : Advanced Video Coding
Duration : 3h 4mn
Bit rate : 500 Kbps
Width : 672 pixels
Height : 378 pixels
Display aspect ratio : 16:9
Frame rate mode : Variable
Frame rate : 24.000 fps
Minimum frame rate : 22.222 fps
Maximum frame rate : 24.000 fps
Color space : YUV
Chroma subsampling : 4:2:0
Bit depth : 8 bits
Scan type : Progressive
Bits/(Pixel*Frame) : 0.082
Stream size : 661 MiB (90%)
Audio
ID : 2
Format : AAC
Format/Info : Advanced Audio Codec
Format profile : HE-AAC / LC
Codec ID : 40
Duration : 3h 4mn
Bit rate mode : Constant
Bit rate : 48.0 Kbps
Channel(s) : 2 channels
Channel positions : Front: L R
Sampling rate : 44.1 KHz / 22.05 KHz
Compression mode : Lossy
Stream size : 63.4 MiB (9%)
[Профиль] [ЛС]
Показать сообщения:    
Ответить на тему

Текущее время: 24-Апр 02:23

Часовой пояс: UTC + 1



Вы не можете начинать темы
Вы не можете отвечать на сообщения
Вы не можете редактировать свои сообщения
Вы не можете удалять свои сообщения
Вы не можете голосовать в опросах
Вы не можете прикреплять файлы к сообщениям
Вы не можете скачивать файлы