ZST 20 The Another Side 24 05 2009 Jap DVDRip XviD-Zeus

Ответить на тему
 
Автор Сообщение

Чипсоед ®

Пол: Не указан

Стаж: 2 года 4 месяца

Сообщений: 8

Создавать темы 27-Июл-2015 13:17

[Цитировать]


Описание: ZST 20 The Another Side 24 05 2009 Jap DVDRip XviD-Zeus
Дата проведения: 24.05.2009
Место проведения: Japan
Язык комментариев: Япона мать

Список поединков

Osami Shibuya vs. Ichiro Kojima
Kenichi Ito vs. Takumi Yano
Shuichiro Katsumura vs. Hiroyuki Yamashiro
Kuniyoshi Hironaka vs. Naoyuki Kotani
Keisuke Fujiwara vs. Yuichiro Shirai

Данные видео

Video
ID : 0
Format : MPEG-4 Visual
Format profile : Simple@L1
Format settings, BVOP : No
Format settings, QPel : No
Format settings, GMC : No warppoints
Format settings, Matrix : Default (H.263)
Codec ID : XVID
Codec ID/Hint : XviD
Duration : 1h 42mn
Bit rate : 1 000 Kbps
Width : 624 pixels
Height : 352 pixels
Display aspect ratio : 16:9
Frame rate : 29.970 fps
Color space : YUV
Chroma subsampling : 4:2:0
Bit depth : 8 bits
Scan type : Progressive
Compression mode : Lossy
Bits/(Pixel*Frame) : 0.152
Stream size : 737 MiB (88%)
Writing library : Lavc51.21.0
Audio
ID : 1
Format : MPEG Audio
Format version : Version 1
Format profile : Layer 3
Mode : Joint stereo
Mode extension : MS Stereo
Codec ID : 55
Codec ID/Hint : MP3
Duration : 1h 42mn
Bit rate mode : Constant
Bit rate : 128 Kbps
Channel(s) : 2 channels
Sampling rate : 48.0 KHz
Compression mode : Lossy
Stream size : 94.2 MiB (11%)
Alignment : Split accross interleaves
Interleave, duration : 33 ms (1.00 video frame)
Interleave, preload duration : 500 ms
[Профиль] [ЛС]

zorro

Пол: Женский

Стаж: 2 года 10 месяцев

Сообщений: 2119

Откуда: 圣塔芭芭拉

Создавать темы 27-Июл-2015 13:21 (спустя 4 минуты)

[Цитировать]

Спасибо за раздачу
[Профиль] [ЛС]

Чипсоед ®

Пол: Не указан

Стаж: 2 года 4 месяца

Сообщений: 8

Создавать темы 27-Июл-2015 13:28 (спустя 7 минут)

[Цитировать]

1879Спасибо за раздачу
)))А ты с Камчатки?
[Профиль] [ЛС]

zorro

Пол: Женский

Стаж: 2 года 10 месяцев

Сообщений: 2119

Откуда: 圣塔芭芭拉

Создавать темы 27-Июл-2015 13:31 (спустя 2 минуты)

[Цитировать]

почти, я с Волгоградской области
[Профиль] [ЛС]

Чипсоед ®

Пол: Не указан

Стаж: 2 года 4 месяца

Сообщений: 8

Создавать темы 27-Июл-2015 13:35 (спустя 4 минуты)

[Цитировать]

1881почти, я с Волгоградской области
Далеко до камчатки)Как там Ротор поживает?Губер до сих пор у них под плинтусом?
[Профиль] [ЛС]

Чипсоед ®

Пол: Не указан

Стаж: 2 года 4 месяца

Сообщений: 8

Создавать темы 27-Июл-2015 14:07 (спустя 32 минуты)

[Цитировать]

Чета не фурычит раздача(((
[Профиль] [ЛС]
Показать сообщения:    
Ответить на тему

Текущее время: 11-Дек 23:34

Часовой пояс: UTC + 1



Вы не можете начинать темы
Вы не можете отвечать на сообщения
Вы не можете редактировать свои сообщения
Вы не можете удалять свои сообщения
Вы не можете голосовать в опросах
Вы не можете прикреплять файлы к сообщениям
Вы не можете скачивать файлы