Ermak Prime Selection 2015 Stage 4 Grandmasters [24.07.2015/MMA/MPEG-TS 576p/RU] :: Fight Tracker Russia

Ermak Prime Selection 2015 Stage 4 Grandmasters [24.07.2015/MMA/MPEG-TS 576p/RU]

Ответить на тему
 
Автор Сообщение

Romapunk ®

Пол: Мужской

Стаж: 2 года 2 месяца

Сообщений: 456

Откуда: Вологодская область

Создавать темы 25-Июл-2015 07:39

[Цитировать]


Описание: Ermak Prime Selection 2015. Stage 4.Grandmasters
Дата проведения: 24/07/2015
Место проведения: Краснодар/Россия
Язык комментариев: Русский (Баранчук)
Продолжительность: 04:00:00
Примечание: Присутствует реклама!!!

Список поединков

Fight Cards
Denis Goltsov vs. James McSweeney
Aleksey Sidorenko vs. Orkhan Pashaev
Yaroslav Amosov vs. Diego Gonzalez
Artem Shokalo vs. Bakhtiyar Abbasov
Alexandr Durymanov vs. Nemad Mamedov
Akhmedbek Musakaev vs. Erzhan Estanov
Grachik Bozinyan vs. Eduard Babenyshev
Prelims
Magomed Khamzaev vs. Vugar Mamedzade
Stanislav Klybik vs. Spartak Abdulaev
Almaz Moldobaev vs. Evgeniy Bondarev
Ikram Aliskerov vs. Vladimir Stukalov
Issa Suleibankadiev vs. Ramzan Algeriev
Sahib Guseinov vs. Roman Avdalyan

Данные видео

Video
ID : 75 (0x4B)
Menu ID : 1 (0x1)
Format : AVC
Format/Info : Advanced Video Codec
Format profile : High@L3
Format settings, CABAC : Yes
Format settings, ReFrames : 4 frames
Codec ID : 27
Duration : 3h 59mn
Bit rate : 1 372 Kbps
Width : 720 pixels
Height : 576 pixels
Display aspect ratio : 4:3
Frame rate : 25.000 fps
Standard : PAL
Color space : YUV
Chroma subsampling : 4:2:0
Bit depth : 8 bits
Scan type : Progressive
Bits/(Pixel*Frame) : 0.132
Stream size : 2.29 GiB (87%)
Writing library : x264 core 124
Audio
ID : 74 (0x4A)
Menu ID : 1 (0x1)
Format : MPEG Audio
Format version : Version 1
Format profile : Layer 3
Mode : Joint stereo
Mode extension : MS Stereo
Codec ID : 3
Duration : 3h 59mn
Bit rate mode : Constant
Bit rate : 128 Kbps
Channel(s) : 2 channels
Sampling rate : 44.1 KHz
Compression mode : Lossy
Delay relative to video : 10ms
Stream size : 220 MiB (8%)
Language : Russian
[Профиль] [ЛС]

Romapunk ®

Пол: Мужской

Стаж: 2 года 2 месяца

Сообщений: 456

Откуда: Вологодская область

Создавать темы 25-Июл-2015 07:41 (спустя 1 минута)

[Цитировать]

Извиняюсь,что без скринов.У меня прога накернулась.Пока некогда чинить)
[Профиль] [ЛС]

ufcthebest

Пол: Не указан

Стаж: 2 года 2 месяца

Сообщений: 27

Создавать темы 25-Июл-2015 07:53 (спустя 11 минут)

[Цитировать]

Спасибо, скрины не так важны. Главное, что подобные турниры только на боевом выкладывают, а уже потом на орг)
[Профиль] [ЛС]

Создавать темы 25-Июл-2015 14:31 (спустя 6 часов)

Топик был перенесен из форума Другие в форум Tech-Krep FC
Superserafim
 
Показать сообщения:    
Ответить на тему

Текущее время: 23-Фев 12:41

Часовой пояс: UTC + 1



Вы не можете начинать темы
Вы не можете отвечать на сообщения
Вы не можете редактировать свои сообщения
Вы не можете удалять свои сообщения
Вы не можете голосовать в опросах
Вы не можете прикреплять файлы к сообщениям
Вы не можете скачивать файлы