ZST.2011.07.17.Battle.Hazard.5.PDTV.x264-RUDOS

Ответить на тему
 
Автор Сообщение

Romapunk ®

Пол: Мужской

Стаж: 2 года 11 месяцев

Сообщений: 772

Откуда: Вологодская область

Создавать темы 24-Июл-2015 11:49

[Цитировать]


Описание: ZST.2011.07.17.Battle.Hazard.5
Дата проведения: 07/17/2011
Место проведения: Япония
Язык комментариев: Японский
Продолжительность: 01:43:00

Список поединков

Satoshi Shinbori vs. Hiroyuki Ai
Yutaka Shimamura vs. Koji Mori
Masayuki Hamagishi vs. Makoto Sasaki
Naohiro Hasegawa vs. Tatsuya Watanabe
Tetsuya Yamada vs. Teppei Hori
Shunichi Shimizu vs. Shigeki Osawa

Данные видео

Video
ID : 1
Format : AVC
Format/Info : Advanced Video Codec
Format profile : High@L3.1
Format settings, CABAC : Yes
Format settings, ReFrames : 4 frames
Codec ID : avc1
Codec ID/Info : Advanced Video Coding
Duration : 1h 42mn
Bit rate : 1 276 Kbps
Maximum bit rate : 1 883 Kbps
Width : 576 pixels
Height : 432 pixels
Display aspect ratio : 4:3
Frame rate mode : Constant
Frame rate : 29.970 fps
Color space : YUV
Chroma subsampling : 4:2:0
Bit depth : 8 bits
Scan type : Progressive
Bits/(Pixel*Frame) : 0.171
Stream size : 939 MiB (87%)
Writing library : x264 core 88 r1471 1144615
Audio
ID : 2
Format : AAC
Format/Info : Advanced Audio Codec
Format profile : LC
Codec ID : 40
Duration : 1h 42mn
Bit rate mode : Variable
Bit rate : 192 Kbps
Maximum bit rate : 212 Kbps
Channel(s) : 2 channels
Channel positions : Front: L R
Sampling rate : 48.0 KHz
Compression mode : Lossy
Stream size : 140 MiB (13%)
[Профиль] [ЛС]
Показать сообщения:    
Ответить на тему

Текущее время: 11-Дек 10:36

Часовой пояс: UTC + 1



Вы не можете начинать темы
Вы не можете отвечать на сообщения
Вы не можете редактировать свои сообщения
Вы не можете удалять свои сообщения
Вы не можете голосовать в опросах
Вы не можете прикреплять файлы к сообщениям
Вы не можете скачивать файлы