UFC 228: Woodley vs. Till (Main Card) [08.09.2018, MMA, 25fps, HDTVRip-AVC 480p, RUS]

Ответить на тему
 
Автор Сообщение

plarin ®

Пол: Мужской

Стаж: 4 года 4 месяца

Сообщений: 853

Откуда: Мадрид

Создавать темы 09-Сен-2018 13:58

[Цитировать]

UFC 228: Woodley vs. Till (Main Card)- Формат: HDTVRip-AVC, MР4, H.264, AAC
Год выпуска: 08.09.2018
Вид спорта: ММА
Продолжительность: 01:58:30
Язык комментариев: Русский (Ян Баранчук и Алексей Володин)-Описание: Главные бои турнира от "UFC 228: Woodley vs. Till", прошедшего 8 сентября 2018 года в "American Airlines Center", Даллас, Техас, США.-Видео: 854x480 (16:9), 25,000 fps, AVC, ~1477 kbps avg, ~0.120 bit/pixel
Аудио: 44.1 kHz, AAC, 2/0 (L,R), ~192.00 kbps avg-Внимание, есть видео и аудио реклама от спонсора показа (Pre-roll)-

Кард

[Welterweight] Tyron Woodley (c) vs. Darren Till *For the UFC Welterweight Championship
[Women's Strawweight] Jessica Andrade vs. Karolina Kowalkiewicz
[Featherweight] Zabit Magomedsharipov vs. Brandon Davis
[Bantamweight] Jimmie Rivera vs. John Dodson
[Welterweight] Abdul Razak Alhassan vs. Niko Price

MediaINFO

General
Complete name               : E:\uTorrent.Temp\Temp\UFC.228.Woodley.vs.Till.25fps.480p.HDTVRip.x264-Rus.mp4
Format                      : MPEG-4
Format profile              : Base Media / Version 2
Codec ID                    : mp42 (mp42/mp41)
File size                   : 1.38 GiB
Duration                    : 1 h 58 min
Overall bit rate mode       : Variable
Overall bit rate            : 1 670 kb/s
Encoded date                : UTC 2018-09-09 11:29:24
Tagged date                 : UTC 2018-09-09 12:04:38
TIM                         : 00:00:00:00
TSC                         : 25
TSZ                         : 1
Video
ID                          : 1
Format                      : AVC
Format/Info                 : Advanced Video Codec
Format profile              : Main@L3.1
Format settings             : CABAC / 4 Ref Frames
Format settings, CABAC      : Yes
Format settings, ReFrames   : 4 frames
Codec ID                    : avc1
Codec ID/Info               : Advanced Video Coding
Duration                    : 1 h 58 min
Bit rate                    : 1 477 kb/s
Width                       : 854 pixels
Height                      : 480 pixels
Display aspect ratio        : 16:9
Frame rate mode             : Constant
Frame rate                  : 25.000 FPS
Standard                    : PAL
Color space                 : YUV
Chroma subsampling          : 4:2:0
Bit depth                   : 8 bits
Scan type                   : Progressive
Bits/(Pixel*Frame)          : 0.144
Stream size                 : 1.22 GiB (88%)
Language                    : English
Encoded date                : UTC 2018-09-09 11:29:24
Tagged date                 : UTC 2018-09-09 11:29:24
Color range                 : Limited
Color primaries             : BT.601 NTSC
Transfer characteristics    : BT.601
Matrix coefficients         : BT.601
Codec configuration box     : avcC
Audio
ID                          : 2
Format                      : AAC LC
Format/Info                 : Advanced Audio Codec Low Complexity
Codec ID                    : mp4a-40-2
Duration                    : 1 h 58 min
Source duration             : 1 h 58 min
Bit rate mode               : Variable
Bit rate                    : 192 kb/s
Maximum bit rate            : 291 kb/s
Channel(s)                  : 2 channels
Channel layout              : L R
Sampling rate               : 48.0 kHz
Frame rate                  : 46.875 FPS (1024 SPF)
Compression mode            : Lossy
Stream size                 : 161 MiB (11%)
Source stream size          : 161 MiB (11%)
Language                    : English
Encoded date                : UTC 2018-09-09 11:29:24
Tagged date                 : UTC 2018-09-09 11:29:24

Скриншоты

[Профиль] [ЛС]

CCC1221

Пол: Не указан

Стаж: 5 дня

Сообщений: 1

Создавать темы 15-Май-2019 15:13 (спустя 8 месяца 6 дня)

[Цитировать]

Привет. Встаньте на раздачу пожалуйста
[Профиль] [ЛС]

Zelo B

Пол: Мужской

Стаж: 4 года 3 месяца

Сообщений: 3705

Откуда: ZX Spectrum land

Создавать темы 15-Май-2019 15:41 (спустя 28 минуты)

[Цитировать]

23265Привет. Встаньте на раздачу пожалуйста
CCC1221, вступай в нашу группу http://fighttracker.ru/group.php?g=11 и не будет проблем со скачиванием....
[Профиль] [ЛС]
Показать сообщения:    
Ответить на тему

Текущее время: 20-Май 19:56

Часовой пояс: UTC + 1



Вы не можете начинать темы
Вы не можете отвечать на сообщения
Вы не можете редактировать свои сообщения
Вы не можете удалять свои сообщения
Вы не можете голосовать в опросах
Вы не можете прикреплять файлы к сообщениям
Вы не можете скачивать файлы