2017-09-23.KOK.MMA.Bushido.1080p.RUS.WebDL-FTR

Ответить на тему
 
Автор Сообщение

quest195 ®

Пол: Не указан

Стаж: 1 год 5 месяца

Сообщений: 161

Создавать темы 08-Июн-2018 17:13

[Цитировать]


Описание:
-
Место проведения: Каунас , Литва .
Язык комментариев: русский-При размещении на других ресурсах,
просьба не менять название файла.

Список поединков

9 : Rodrigo Mineiro (Brazilija) vs Mindaugas Narauskas (Lithuania) - 71 kg -- K-1
8 : Melvinas Suijdamas (Holland) vs Darius Minkevicius (Lithuania) -80 kg -- MMA
7 : Mouhcine Chafi (Spain/Morocco) vs Mantas Stankis (Lithuania) -75 kg -- K-1
6 : Tatjana Vozniuk (Ukraine) vs Julija Stoliarenko (Lithuania) -62 kg -- MMA
5 : Giedrius Skara (Lithuania) vs Vitoldas Jegela (Lithuania) -76 kg -- MMA
4 : Antonas Radko (Ukraine) vs Zygimantas Ramaska (Lithuania) -70 kg -- MMA
3 : Hubertas Dylewski (Poland) vs Mindaugas Packevicius (Lithuania) -67 kg -- K-1
2 : Irmantas Zubrickis (Lithuania) vs Ervinas Fokinas (Lithuania) -67 kg -- MMA
1 : Ernestas Varankevicius (Lithuania) vs Mantas Navickas (Lithuania) -78 kg -- MMA

Media Info

2017-09-23.KOK.MMA.Bushido.1080p.RUS.WebDL-FTR.mkv':
Metadata:
ENCODER : Lavf58.12.100
Duration: 02:37:51.52, start: 0.000000, bitrate: 4300 kb/s
Stream #0:0: Video: h264 (High), yuv420p(progressive), 1920x1080 [SAR 1:1 DAR 16:9], 25 fps, 25 tbr, 1k tbn, 50 tbc (default)
Metadata:
DURATION : 02:37:51.523000000
Stream #0:1: Audio: aac (LC), 44100 Hz, stereo, fltp (default)
Metadata:
DURATION : 02:37:51.512000000

Скриншоты



[Профиль] [ЛС]
Показать сообщения:    
Ответить на тему

Текущее время: 19-Сен 17:50

Часовой пояс: UTC + 1



Вы не можете начинать темы
Вы не можете отвечать на сообщения
Вы не можете редактировать свои сообщения
Вы не можете удалять свои сообщения
Вы не можете голосовать в опросах
Вы не можете прикреплять файлы к сообщениям
Вы не можете скачивать файлы