2017-08-26.SUPERKOMBAT.Main.Card.1080p.RUS.WebDL-FTR

Ответить на тему
 
Автор Сообщение

quest195 ®

Пол: Не указан

Стаж: 5 месяцев 23 дня

Сообщений: 75

Создавать темы 08-Июн-2018 17:12

[Цитировать]


Описание:
-
Место проведения: Shenzhen Stadium in Shenzhen, China
Язык комментариев: русский-При размещении на других ресурсах,
просьба не менять название файла.

Список Поединков

Chen Yawei vs Alex Filip
Antonio Plazibat vs Lian Jie
Sun Chao vs Bogdan Nastase
Gao Xiang vs Eduard Chelariu
Tomislav Cikotic vs Dawid Zoltaszek

Данные видео

2017-08-26.SUPERKOMBAT.Main.Card.1080p.RUS.WebDL-FTR.mkv':
Metadata:
ENCODER : Lavf58.12.100
Duration: 01:20:06.45, start: 0.000000, bitrate: 4292 kb/s
Stream #0:0: Video: h264 (High), yuv420p(progressive), 1920x1080 [SAR 1:1 DAR 16:9], 25 fps, 25 tbr, 1k tbn, 50 tbc (default)
Metadata:
DURATION : 01:20:06.451000000
Stream #0:1: Audio: aac (LC), 44100 Hz, stereo, fltp (default)
Metadata:
DURATION : 01:20:06.438000000

Скриншоты



[Профиль] [ЛС]

zorro

Пол: Мужской

Стаж: 3 года 7 месяцев

Сообщений: 2838

Откуда: их столица

Создавать темы 08-Июн-2018 17:41 (спустя 29 минут)

[Цитировать]

спасибо генацвале
[Профиль] [ЛС]
Показать сообщения:    
Ответить на тему

Текущее время: 26-Сен 05:49

Часовой пояс: UTC + 1



Вы не можете начинать темы
Вы не можете отвечать на сообщения
Вы не можете редактировать свои сообщения
Вы не можете удалять свои сообщения
Вы не можете голосовать в опросах
Вы не можете прикреплять файлы к сообщениям
Вы не можете скачивать файлы