2018-03-23.TFL.13.1080p.RUS.WebDL-FTR

Ответить на тему
 
Автор Сообщение

quest195 ®

Пол: Не указан

Стаж: 4 месяца 18 дней

Сообщений: 72

Создавать темы 16-Май-2018 17:25

[Цитировать]


Описание:
-
Место проведения: Польша
Язык комментариев: русский-При размещении на других ресурсах,
просьба не менять название файла.

Список Поединков

Karol Michalak vs Lukasz Talarowski
Adrian Bartosinski vs Wojciech Zuchnik
Slawomir Koitunowicz vs Bartlomiej Wdowiak
Michal Folc vs Pawel Lisiewski
Rafal Kijanczuk vs Jonathan Casariego
Cazary Oleksiejczuk vs Jakub Martys
Mariusz Skwarek vs Grzegorz Stelmasiewicz
Izabela Badurek vs Barbara Nalepka
Guilherme Cadena vs Hubert Szymajda

Данные видео

Metadata:
ENCODER : Lavf58.12.100
Duration: 02:14:24.46, start: 0.000000, bitrate: 4287 kb/s
Stream #0:0: Video: h264 (High), yuv420p(progressive), 1920x1080 [SAR 1:1 DAR 16:9], 25 fps, 25 tbr, 1k tbn, 50 tbc (default)
Metadata:
DURATION : 02:14:24.459000000
Stream #0:1: Audio: aac (LC), 44100 Hz, stereo, fltp (default)
Metadata:
DURATION : 02:14:24.429000000

Скриншоты



[Профиль] [ЛС]
Показать сообщения:    
Ответить на тему

Текущее время: 21-Авг 09:08

Часовой пояс: UTC + 1



Вы не можете начинать темы
Вы не можете отвечать на сообщения
Вы не можете редактировать свои сообщения
Вы не можете удалять свои сообщения
Вы не можете голосовать в опросах
Вы не можете прикреплять файлы к сообщениям
Вы не можете скачивать файлы