2017-04-29.CRC.4.1080p.RUS.WebDL-FTR

Ответить на тему
 
Автор Сообщение

quest195 ®

Пол: Не указан

Стаж: 4 месяца 18 дней

Сообщений: 72

Создавать темы 16-Май-2018 16:28

[Цитировать]


Описание:
-
Место проведения: Ирландия
Язык комментариев: русский-При размещении на других ресурсах,
просьба не менять название файла.

Список Поединков

Pro K-1 63.5kg Title Fight
Dawid Wogan Jr. (309 M/T Dublin) vs Michael O'Donovan (Samson)
Final of 85kg CRC Grappling Tournament - EBI Rules
Kieran Davern (SBG Tullamore) vs Paweł Marciniak (Fantom)
Amateur K-1 70kg Title
Ion Catarau (Naas KB) vs Solomon King Simon (Compound MA)
Amateur MMA Featherweight Title
Paweł Polityło (Fantom) vs Matthew Whyte (Full Power)
Amateur MMA
LW: Arron Daniels (SBG) vs Dawid Milewski (Piont Blank)
FW: Alex Kravtsov (Husaria) vs Alexander Yankov (Campound MA)
Semi-Finals of 85kg CRC Grappling Tournament - EBI Rules
Paweł Marciniak (Fantom) vs Damien Dowling (JSBJJ)
Kieran Davern (SBG Tullamore) vs Kamil Dudek (SBG Tullamore)
Amateur K-1
80kg: Faolan Rahill (Fantom) vs Cy Cleary (LionsDen)
76kg: Killian Quinn (Motonari) vs Garrett Lawrence (Fantom)
68kg: Paddy Kane (Fantom) vs Sebastian Szuster (Knights Templar)

Данные видео

Metadata:
ENCODER : Lavf58.12.100
Duration: 02:17:19.49, start: 0.000000, bitrate: 4257 kb/s
Stream #0:0: Video: h264 (High), yuv420p(progressive), 1920x1080 [SAR 1:1 DAR 16:9], 25 fps, 25 tbr, 1k tbn, 50 tbc (default)
Metadata:
DURATION : 02:17:19.491000000
Stream #0:1: Audio: aac (LC), 44100 Hz, stereo, fltp (default)
Metadata:
DURATION : 02:17:19.461000000

Скриншоты



[Профиль] [ЛС]
Показать сообщения:    
Ответить на тему

Текущее время: 21-Авг 09:08

Часовой пояс: UTC + 1



Вы не можете начинать темы
Вы не можете отвечать на сообщения
Вы не можете редактировать свои сообщения
Вы не можете удалять свои сообщения
Вы не можете голосовать в опросах
Вы не можете прикреплять файлы к сообщениям
Вы не можете скачивать файлы