2017-04-07.Superkombat.New.Heroes.1080p.RUS.WebDL-FTR

Ответить на тему
 
Автор Сообщение

quest195 ®

Пол: Не указан

Стаж: 1 месяц 25 дней

Сообщений: 58

Создавать темы 16-Май-2018 12:48

[Цитировать]


Описание:
-
Место проведения: Румыния
Язык комментариев: русский-При размещении на других ресурсах,
просьба не менять название файла.

Список Поединков

Dragos Imbrea vs Claudiu Alexe
Valentin Horjea vs Alexandru Radnev
Magnus Onyeka Iversen vs Eduard Chelariu
Dumitru Topai vs Marios Blanas
Lofti Amri vs Bogdan0Ionut Nastase

Данные видео

Metadata:
ENCODER : Lavf58.12.100
Duration: 01:53:26.49, start: 0.000000, bitrate: 4323 kb/s
Stream #0:0: Video: h264 (High), yuv420p(progressive), 1920x1080 [SAR 1:1 DAR 16:9], 25 fps, 25 tbr, 1k tbn, 50 tbc (default)
Metadata:
DURATION : 01:53:26.490000000
Stream #0:1: Audio: aac (LC), 44100 Hz, stereo, fltp (default)
Metadata:
DURATION : 01:53:26.465000000

Скриншоты



[Профиль] [ЛС]

zorro

Пол: Женский

Стаж: 3 года 3 месяца

Сообщений: 2608

Откуда: поездка Гелика к Админу

Создавать темы 16-Май-2018 12:56 (спустя 7 минут)

[Цитировать]

спасибо друг, рассыпания картинки присутствуют?
[Профиль] [ЛС]

quest195 ®

Пол: Не указан

Стаж: 1 месяц 25 дней

Сообщений: 58

Создавать темы 16-Май-2018 13:09 (спустя 13 минут)

[Цитировать]

Всё присутсвует. И рассыпания и рассинхрон . Это полная раздача новых героев в которой есть всё. ag Если честно - не знаю. Я их не смотрю.
[Профиль] [ЛС]

zorro

Пол: Женский

Стаж: 3 года 3 месяца

Сообщений: 2608

Откуда: поездка Гелика к Админу

Создавать темы 16-Май-2018 16:00 (спустя 2 часа 50 минут)

[Цитировать]

реклама то есть? А заслуженный мастер спорта?
[Профиль] [ЛС]

quest195 ®

Пол: Не указан

Стаж: 1 месяц 25 дней

Сообщений: 58

Создавать темы 16-Май-2018 16:33 (спустя 33 минуты)

[Цитировать]

Реклама сплошная с маленькими вставками турнира. И в этих вставках дает интервью заслуженный мастер спорта. А на фоне по большоиу телевизору идет трансляция турнира. Что-то, да и можно рассмотреть. В другом качестве этот турнир просто не достать. ab
[Профиль] [ЛС]

zorro

Пол: Женский

Стаж: 3 года 3 месяца

Сообщений: 2608

Откуда: поездка Гелика к Админу

Создавать темы 16-Май-2018 16:56 (спустя 22 минуты)

[Цитировать]

18932Реклама сплошная с маленькими вставками турнира. И в этих вставках дает интервью заслуженный мастер спорта. А на фоне по большоиу телевизору идет трансляция турнира. Что-то, да и можно рассмотреть. В другом качестве этот турнир просто не достать. ab
о, класс, BTW тоже должно понравиться!
[Профиль] [ЛС]

BTW

Пол: Мужской

Стаж: 2 года 11 месяцев

Сообщений: 554

Откуда: Las Vegas, Nevada

Создавать темы 16-Май-2018 17:21 (спустя 25 минут)

[Цитировать]

Факт, я без рекламы вообще не качаю. За рассинхрон особый респект. Ещё бы главный бой рассыпался на середине — цены бы релизу не было.
[Профиль] [ЛС]
Показать сообщения:    
Ответить на тему

Текущее время: 27-Май 14:21

Часовой пояс: UTC + 1



Вы не можете начинать темы
Вы не можете отвечать на сообщения
Вы не можете редактировать свои сообщения
Вы не можете удалять свои сообщения
Вы не можете голосовать в опросах
Вы не можете прикреплять файлы к сообщениям
Вы не можете скачивать файлы