Василий Ломаченко - Хорхе Линарес / Vasyl Lomachenko vs Jorge Linares [12.05.2018, TOP Rank, 1080p, ENG]

Ответить на тему
 
Автор Сообщение

Garik50cent ®

Пол: Не указан

Стаж: 3 года 5 месяцев

Сообщений: 25

Создавать темы 14-Май-2018 21:06

[Цитировать]

[WBA Lightweight Championship]
Василий Ломаченко - Хорхе Линарес / Vasyl Lomachenko vs Jorge Linares
- Дата проведения: 12 мая 2018 года
Участники: Василий Ломаченко , Jorge Linares (c)
Язык комментариев: Английский (English)
Канал: TOP Rank HD

Описание:
В субботу, 12 мая, 30-летний украинский чемпион по версии WBO во втором полулегком весе Василий Ломаченко (10-1, 8КО) в Нью-Йорке на легендарной арене Madison Square Garden встретится в ринге с чемпионом мира по версии WBA в легком весе 32-летним венесуэльцом Хорхе Линаресом (44-3, 27КО). Бой пройдет в рамках легкого веса (135 фунтов; 61,2 кг), а на кону будет стоять титул чемпиона мира по версии WBA, принадлежащий Линаресу.
Запись имеет всё (выходы бойцов на ринг, представления, повторы между раундами)
Качество видео: HDTVRip 1080p
Формат: matroska
Видео: 1920x1080, H.264, 25 fps, 7791kbps
Аудио: MP2, 48 kHz, 2 ch, 256 kbps

Продолжительность

00:55:06

Тех.характеристики

Format : Matroska
Format version : Version 4 / Version 2
File size : 3.16 GiB
Duration : 55mn 6s
Overall bit rate : 8 211 Kbps
Encoded date : UTC 2010-02-22 21:41:29
Writing application : no_variable_data
Writing library : no_variable_data
Video
ID : 1
Format : AVC
Format/Info : Advanced Video Codec
Format profile : High@L4.2
Format settings, CABAC : Yes
Format settings, ReFrames : 4 frames
Codec ID : V_MPEG4/ISO/AVC
Duration : 55mn 6s
Bit rate : 7 791 Kbps
Width : 1 920 pixels
Height : 1 080 pixels
Display aspect ratio : 16:9
Frame rate mode : Constant
Frame rate : 25.000 fps
Color space : YUV
Chroma subsampling : 4:2:0
Bit depth : 8 bits
Scan type : Progressive
Bits/(Pixel*Frame) : 0.150
Stream size : 3.00 GiB (95%)
Writing library : x264 core 155 r2901 7d0ff22
Encoding settings : cabac=1 / ref=4 / deblock=1:0:0 / analyse=0x3:0x113 / me=hex / subme=8 / psy=1 / psy_rd=1.00:0.00 / mixed_ref=1 / me_range=16 / chroma_me=1 / trellis=2 / 8x8dct=1 / cqm=0 / deadzone=21,11 / fast_pskip=1 / chroma_qp_offset=-2 / threads=12 / lookahead_threads=2 / sliced_threads=0 / nr=0 / decimate=1 / interlaced=0 / bluray_compat=0 / constrained_intra=0 / bframes=3 / b_pyramid=2 / b_adapt=1 / b_bias=0 / direct=3 / weightb=1 / open_gop=0 / weightp=2 / keyint=250 / keyint_min=25 / scenecut=40 / intra_refresh=0 / rc_lookahead=50 / rc=crf / mbtree=1 / crf=23.0 / qcomp=0.60 / qpmin=0 / qpmax=69 / qpstep=4 / ip_ratio=1.40 / aq=1:1.00
Language : English
Default : Yes
Forced : No
Matrix coefficients : BT.709
Audio
ID : 2
Format : MPEG Audio
Format version : Version 1
Format profile : Layer 2
Codec ID : A_MPEG/L2
Codec ID/Hint : MP2
Duration : 55mn 6s
Bit rate mode : Constant
Bit rate : 256 Kbps
Channel(s) : 2 channels
Sampling rate : 48.0 KHz
Compression mode : Lossy
Stream size : 101 MiB (3%)
Language : English
Default : Yes
Forced : No

Скриншоты


-ПРОСЬБА! ОСТАВАЙТЕСЬ НА РАЗДАЧЕ КАК МОЖНО ДОЛЬШЕ! СПАСИБО! ab
[Профиль] [ЛС]
Показать сообщения:    
Ответить на тему

Текущее время: 27-Май 14:21

Часовой пояс: UTC + 1



Вы не можете начинать темы
Вы не можете отвечать на сообщения
Вы не можете редактировать свои сообщения
Вы не можете удалять свои сообщения
Вы не можете голосовать в опросах
Вы не можете прикреплять файлы к сообщениям
Вы не можете скачивать файлы