2018-03-25.Superkombat.Dream.1080p.RUS.WebDL-FTR

Ответить на тему
 
Автор Сообщение

quest195 ®

Пол: Не указан

Стаж: 7 месяца 15 дня

Сообщений: 75

Создавать темы 10-Май-2018 07:04

[Цитировать]


Описание:
-
Место проведения: Румыния
Язык комментариев: русский-При размещении на других ресурсах,
просьба не менять название файла.

Список Поединков

Superkombat Dream
Florin Lupu vs Mihai Popa
Alexandru Radnev vs Daniel Ionescu
Ion Grigore vs Raul Manoila
Valentin Bordianu vs Cristian Batan
Cosmin Ionescu vs Ionut Spatarelu
Superkombat Dream WGP
Alex Filip vs Coriolano Gennaro
Patrick Schmid vs Sasa Polugic
Claudiu Alexe vs Dumitru Topai
Daniel Stefanovski vs Adelin Mihaila

Данные видео

Superkombat Dream
Metadata:
ENCODER : Lavf57.83.100
Duration: 01:29:51.48, start: 0.000000, bitrate: 4344 kb/s
Stream #0:0: Video: h264 (High), yuv420p(progressive), 1920x1080 [SAR 1:1 DAR 16:9], 25 fps, 25 tbr, 1k tbn, 50 tbc (default)
Metadata:
DURATION : 01:29:51.477000000
Stream #0:1: Audio: aac (LC), 44100 Hz, stereo, fltp (default)
Metadata:
DURATION : 01:29:51.464000000
Superkombat Dream WGP
Metadata:
ENCODER : Lavf57.83.100
Duration: 00:57:31.51, start: 0.000000, bitrate: 4338 kb/s
Stream #0:0: Video: h264 (High), yuv420p(progressive), 1920x1080 [SAR 1:1 DAR 16:9], 25 fps, 25 tbr, 1k tbn, 50 tbc (default)
Metadata:
DURATION : 00:57:31.508000000
Stream #0:1: Audio: aac (LC), 44100 Hz, stereo, fltp (default)
Metadata:
DURATION : 00:57:31.484000000

Скриншоты




[Профиль] [ЛС]
Показать сообщения:    
Ответить на тему

Текущее время: 17-Ноя 14:56

Часовой пояс: UTC + 1



Вы не можете начинать темы
Вы не можете отвечать на сообщения
Вы не можете редактировать свои сообщения
Вы не можете удалять свои сообщения
Вы не можете голосовать в опросах
Вы не можете прикреплять файлы к сообщениям
Вы не можете скачивать файлы