Ermak Prime Selection 2015. Stage 3 [08.07.2015/MMA/MPEG-TS 576p/RU] :: Fight Tracker Russia

Ermak Prime Selection 2015. Stage 3 [08.07.2015/MMA/MPEG-TS 576p/RU]

Ответить на тему
 
Автор Сообщение

Romapunk ®

Пол: Мужской

Стаж: 2 года 3 месяца

Сообщений: 474

Откуда: Вологодская область

Создавать темы 10-Июл-2015 22:17

[Цитировать]


Описание:
Описание: Ermak Prime Selection 2015. Stage 3
Дата проведения: 08/07/2015
Место проведения: Россия/Краснодар
Язык комментариев: Русский
Продолжительность: 03:30:00
Примечание: Присутствует реклама

Данные видео

General
ID : 1813 (0x715)
Complete name :25 июня 2000 Смешанные единоборства. Prime. Гран-при-2015.Stage 3 Прямая трансляция из Краснодара.ts
Format : MPEG-TS
File size : 2.31 GiB
Duration : 3h 29mn
Overall bit rate mode : Variable
Overall bit rate : 1 572 Kbps
Video
ID : 69 (0x45)
Menu ID : 1 (0x1)
Format : AVC
Format/Info : Advanced Video Codec
Format profile : High@L3
Format settings, CABAC : Yes
Format settings, ReFrames : 4 frames
Codec ID : 27
Duration : 3h 29mn
Bit rate : 1 372 Kbps
Width : 720 pixels
Height : 576 pixels
Display aspect ratio : 4:3
Frame rate : 25.000 fps
Standard : PAL
Color space : YUV
Chroma subsampling : 4:2:0
Bit depth : 8 bits
Scan type : Progressive
Bits/(Pixel*Frame) : 0.132
Stream size : 2.00 GiB (87%)
Writing library : x264 core 124
Audio
ID : 68 (0x44)
Menu ID : 1 (0x1)
Format : MPEG Audio
Format version : Version 1
Format profile : Layer 3
Mode : Joint stereo
Mode extension : MS Stereo
Codec ID : 3
Duration : 3h 29mn
Bit rate mode : Constant
Bit rate : 128 Kbps
Channel(s) : 2 channels
Sampling rate : 44.1 KHz
Compression mode : Lossy
Delay relative to video : -184ms
Stream size : 192 MiB (8%)
Language : Russian

Скриншоты



[Профиль] [ЛС]

Создавать темы 25-Июл-2015 14:28 (спустя 14 дней)

Топик был перенесен из форума Другие в форум Tech-Krep FC
Superserafim
 
Показать сообщения:    
Ответить на тему

Текущее время: 25-Мар 04:49

Часовой пояс: UTC + 1



Вы не можете начинать темы
Вы не можете отвечать на сообщения
Вы не можете редактировать свои сообщения
Вы не можете удалять свои сообщения
Вы не можете голосовать в опросах
Вы не можете прикреплять файлы к сообщениям
Вы не можете скачивать файлы