Glory 1-8 [Extreme sports channel/MPEG-TS 576p/RU]

Ответить на тему
 
Автор Сообщение

Romapunk ®

Пол: Мужской

Стаж: 2 года 7 месяцев

Сообщений: 574

Откуда: Вологодская область

Создавать темы 06-Июл-2015 21:19

[Цитировать]


Описание: Glory (8 выпусков)
Язык комментариев: Русский
Продолжительность: ~ 00:50:00 (выпуск)

Данные видео

General
ID : 62531 (0xF443)
Complete name :
Format : MPEG-TS
File size : 614 MiB
Duration : 54mn 53s
Overall bit rate mode : Variable
Overall bit rate : 1 565 Kbps
Video
ID : 69 (0x45)
Menu ID : 1 (0x1)
Format : AVC
Format/Info : Advanced Video Codec
Format profile : High@L3
Format settings, CABAC : Yes
Format settings, ReFrames : 4 frames
Codec ID : 27
Duration : 54mn 52s
Bit rate : 1 372 Kbps
Width : 528 pixels
Height : 576 pixels
Display aspect ratio : 16:9
Frame rate : 25.000 fps
Color space : YUV
Chroma subsampling : 4:2:0
Bit depth : 8 bits
Scan type : Progressive
Bits/(Pixel*Frame) : 0.180
Stream size : 533 MiB (87%)
Writing library : x264 core 124
Audio
ID : 68 (0x44)
Menu ID : 1 (0x1)
Format : MPEG Audio
Format version : Version 1
Format profile : Layer 3
Codec ID : 3
Duration : 54mn 54s
Bit rate mode : Constant
Bit rate : 128 Kbps
Channel(s) : 1 channel
Sampling rate : 44.1 KHz
Compression mode : Lossy
Delay relative to video : -23ms
Stream size : 50.3 MiB (8%)
Language : Russian

Скриншоты



[Профиль] [ЛС]

eutabioleiriao

Пол: Мужской

Стаж: 2 года 6 месяцев

Сообщений: 44

Создавать темы 06-Июл-2015 21:33 (спустя 13 минут)

[Цитировать]

thank you
[Профиль] [ЛС]

Allll

Пол: Не указан

Стаж: 2 года 4 месяца

Сообщений: 203

Создавать темы 08-Июл-2015 17:31 (спустя 1 день 19 часов)

[Цитировать]

1 Часть Glory 1.ts 120.54 MB (126397412 - с этим файлом проблемы какие то
[Профиль] [ЛС]

Romapunk ®

Пол: Мужской

Стаж: 2 года 7 месяцев

Сообщений: 574

Откуда: Вологодская область

Создавать темы 09-Июл-2015 09:35 (спустя 16 часов)

[Цитировать]

16681 Часть Glory 1.ts 120.54 MB (126397412 - с этим файлом проблемы какие то
Не воспроизводится или чего? Я 2-мя плеерами проверил.Там просто не правильно определяется продолжительность.А так смотреть можно.Там первые минуты передачи.А так в принципе можно и без них)
[Профиль] [ЛС]

Allll

Пол: Не указан

Стаж: 2 года 4 месяца

Сообщений: 203

Создавать темы 24-Июл-2015 00:33 (спустя 14 дней)

[Цитировать]

там в общем ,начало еще до выпуска глори,с африканского турнира по мма ,кусками .....я сразу не понял ,что это из другой программы)))
[Профиль] [ЛС]
Показать сообщения:    
Ответить на тему

Текущее время: 25-Июл 09:48

Часовой пояс: UTC + 1



Вы не можете начинать темы
Вы не можете отвечать на сообщения
Вы не можете редактировать свои сообщения
Вы не можете удалять свои сообщения
Вы не можете голосовать в опросах
Вы не можете прикреплять файлы к сообщениям
Вы не можете скачивать файлы