В отключке [20 выпусков/Extreme sports channel/MPEG-TS 576p/RU] :: Fight Tracker Russia

В отключке [20 выпусков/Extreme sports channel/MPEG-TS 576p/RU]

Ответить на тему
 
Автор Сообщение

Romapunk ®

Пол: Мужской

Стаж: 2 года 3 месяца

Сообщений: 477

Откуда: Вологодская область

Создавать темы 06-Июл-2015 17:16

[Цитировать]


Описание: В отключке (20 выпусков)
Язык комментариев: Русский
Продолжительность: ~ 00:25:00 (выпуск)

Данные видео

General
ID : 62531 (0xF443)
Complete name : 1 Серия В отключке.ts
Format : MPEG-TS
File size : 278 MiB
Duration : 24mn 53s
Overall bit rate mode : Variable
Overall bit rate : 1 563 Kbps
Video
ID : 69 (0x45)
Menu ID : 1 (0x1)
Format : AVC
Format/Info : Advanced Video Codec
Format profile : High@L3
Format settings, CABAC : Yes
Format settings, ReFrames : 4 frames
Codec ID : 27
Duration : 19h 37mn
Bit rate : 1 372 Kbps
Width : 528 pixels
Height : 576 pixels
Display aspect ratio : 16:9
Frame rate : 25.000 fps
Color space : YUV
Chroma subsampling : 4:2:0
Bit depth : 8 bits
Scan type : Progressive
Bits/(Pixel*Frame) : 0.180
Stream size : 11.1 GiB
Writing library : x264 core 124
Audio
ID : 68 (0x44)
Menu ID : 1 (0x1)
Format : MPEG Audio
Format version : Version 1
Format profile : Layer 3
Codec ID : 3
Duration : 24mn 53s
Bit rate mode : Constant
Bit rate : 128 Kbps
Channel(s) : 1 channel
Sampling rate : 44.1 KHz
Compression mode : Lossy
Delay relative to video : -193ms
Stream size : 22.8 MiB (8%)
Language : Russian

Скриншоты






[Профиль] [ЛС]

dardar

Пол: Мужской

Стаж: 2 года 2 месяца

Сообщений: 41

Создавать темы 20-Авг-2015 14:35 (спустя 1 месяц 13 дней)

[Цитировать]

Romapunk, Вернись на раздачу плиз !
[Профиль] [ЛС]

zorro

Пол: Мужской

Стаж: 2 года 2 месяца

Сообщений: 1566

Откуда: アラスカ、ロシア

Создавать темы 20-Авг-2015 15:59 (спустя 1 час 24 минуты)

[Цитировать]

2094Romapunk, Вернись на раздачу плиз !
http://fighttracker.ru/viewtopic.php?t=901
[Профиль] [ЛС]

dardar

Пол: Мужской

Стаж: 2 года 2 месяца

Сообщений: 41

Создавать темы 20-Авг-2015 16:38 (спустя 38 минут)

[Цитировать]

zorro,Это печально,попробую поискать в других местах тогда
[Профиль] [ЛС]

OOO

Пол: Не указан

Стаж: 9 месяцев 28 дней

Сообщений: 76

Создавать темы 21-Июн-2016 05:18 (спустя 10 месяцев)

[Цитировать]

Вернитесь на раздачу пожалуйста
[Профиль] [ЛС]
Показать сообщения:    
Ответить на тему

Текущее время: 28-Мар 20:32

Часовой пояс: UTC + 1



Вы не можете начинать темы
Вы не можете отвечать на сообщения
Вы не можете редактировать свои сообщения
Вы не можете удалять свои сообщения
Вы не можете голосовать в опросах
Вы не можете прикреплять файлы к сообщениям
Вы не можете скачивать файлы