2009-00-00.Ultimate.Combat.Expirience.1080p.Ru.Web-DL

Ответить на тему
 
Автор Сообщение

quest195 ®

Пол: Не указан

Стаж: 6 месяцев 18 дней

Сообщений: 75

Создавать темы 06-Апр-2018 20:22

[Цитировать]


Описание:
-
Место проведения: Америка
Язык комментариев: Русский-При размещении на других ресурсах,
просьба не менять название файла.

Список поединков

Tony Strader vs Dugan Wight Man
Daniel Grass vs Mike Reynolds
Paul Roberts vs Chase Pearson
Paul Sizemore vs Rusty Pearson
Blake Sprouse vs Kensei Sato
Cory Bentz vs Daniel Grass
Kyle Jackson vs Mike Crisman

Media Info

Metadata:
ENCODER : Lavf57.41.100
Duration: 01:28:23.49, start: 0.000000, bitrate: 4251 kb/s
Stream #0:0: Video: h264 (High), yuv420p, 1920x1080 [SAR 1:1 DAR 16:9], 25 fps, 25 tbr, 1k tbn, 50 tbc (default)
Metadata:
DURATION : 01:28:23.486000000
Stream #0:1: Audio: aac (LC), 44100 Hz, stereo, fltp (default)
Metadata:
DURATION : 01:28:23.484000000

Скриншоты



[Профиль] [ЛС]

quest195 ®

Пол: Не указан

Стаж: 6 месяцев 18 дней

Сообщений: 75

Создавать темы 06-Апр-2018 20:24 (спустя 1 минута)

[Цитировать]

Поединки из разных турниров Ultimate Combat Expirience . Так же в раздаче есть немного рекламы.
[Профиль] [ЛС]

Gelo B

Пол: Мужской

Стаж: 3 года 9 месяцев

Сообщений: 5146

Откуда: Германия

Создавать темы 06-Апр-2018 20:35 (спустя 11 минут)

[Цитировать]

18044Поединки из разных турниров Ultimate Combat Expirience . Так же в раздаче есть немного рекламы.
оооооооо реклама есть ay , будет что посмотреть , ты спас мои выходные !!! жаль конечно что её немного , но в любом случае за релиз спасибо !!!
[Профиль] [ЛС]
Показать сообщения:    
Ответить на тему

Текущее время: 21-Окт 10:49

Часовой пояс: UTC + 1



Вы не можете начинать темы
Вы не можете отвечать на сообщения
Вы не можете редактировать свои сообщения
Вы не можете удалять свои сообщения
Вы не можете голосовать в опросах
Вы не можете прикреплять файлы к сообщениям
Вы не можете скачивать файлы