T-One Muay Thai [01.07.2015/Muay Thai/720p]

Ответить на тему
 
Автор Сообщение

Romapunk ®

Пол: Мужской

Стаж: 2 года 9 месяцев

Сообщений: 690

Откуда: Вологодская область

Создавать темы 05-Июл-2015 10:44

[Цитировать]


Описание: T-One Muay Thai
Дата проведения: 01/07/2015
Место проведения: Китай
Продолжительность: 01:00:00

Данные видео

General
Complete name : T-One Muay Thai 720p[2015.06.01].mp4
Format : MPEG-4
Format profile : Base Media / Version 2
Codec ID : mp42
File size : 857 MiB
Duration : 1h 0mn
Overall bit rate mode : Variable
Overall bit rate : 1 996 Kbps
Writing application : TMPGEnc Video Mastering Works 5 Version. 5.5.2.107
Video
ID : 2
Format : AVC
Format/Info : Advanced Video Codec
Format profile : High@L3.1
Format settings, CABAC : Yes
Format settings, ReFrames : 5 frames
Codec ID : avc1
Codec ID/Info : Advanced Video Coding
Duration : 1h 0mn
Bit rate mode : Constant
Bit rate : 1 868 Kbps
Nominal bit rate : 2 000 Kbps / 2 000 Kbps
Width : 1 280 pixels
Height : 720 pixels
Display aspect ratio : 16:9
Frame rate mode : Constant
Frame rate : 25.000 fps
Color space : YUV
Chroma subsampling : 4:2:0
Bit depth : 8 bits
Scan type : Progressive
Bits/(Pixel*Frame) : 0.081
Stream size : 802 MiB (94%)
Writing library : x264 core 136
Color range : Limited
Color primaries : BT.709
Transfer characteristics : BT.709
Matrix coefficients : BT.709
Audio
ID : 1
Format : AAC
Format/Info : Advanced Audio Codec
Format profile : LC
Codec ID : 40
Duration : 1h 0mn
Bit rate mode : Variable
Bit rate : 125 Kbps
Maximum bit rate : 576 Kbps
Channel(s) : 2 channels
Channel positions : Front: L R
Sampling rate : 48.0 KHz
Compression mode : Lossy
Stream size : 53.8 MiB (6%)

Скриншоты



[Профиль] [ЛС]
Показать сообщения:    
Ответить на тему

Текущее время: 16-Окт 23:03

Часовой пояс: UTC + 1



Вы не можете начинать темы
Вы не можете отвечать на сообщения
Вы не можете редактировать свои сообщения
Вы не можете удалять свои сообщения
Вы не можете голосовать в опросах
Вы не можете прикреплять файлы к сообщениям
Вы не можете скачивать файлы