Deontay Wilder vs. Luis Ortiz / Деонтей Уайлдер – Луис Ортис [03.03.2018, SKY Sports, 720p/50fps, ENG]

Ответить на тему
 
Автор Сообщение

Garik50cent ®

Пол: Не указан

Стаж: 3 года 11 месяца

Сообщений: 50

Создавать темы 05-Мар-2018 18:45

[Цитировать]

[WBC Heavyweight Championship]
Deontay Wilder vs. Luis Ortiz / Деонтей Уайлдер – Луис Ортис
-
Дата проведения: 03.03.2018
Участники: Deontay Wilder (c) , Luis Ortiz
Язык комментариев: Английский (English)
Канал: SKY Sports HD
Описание:
В ночь 3 — 4 марта на арене "Barclays Center" в Бруклине (Нью-Йорк, США) состоится бой за титул чемпиона мира по версии WBC в супертяжёлом весе (свыше 90,7 кг). Действующий обладатель пояса, 32-летний американец — Деонтей Уайлдер (39-0, 38 KO's) по-прозвищу "Бронзовый бомбардировщик" встретится в ринге с 38-летним претендентом из Кубы — Луисом Ортисом (28-0, 24 KO's) по-прозвищу "Кинг-Конг". Оба боксера не знают поражений на профи ринге. Деонтей Уайлдер проведет первую защиту чемпионского пояса с действительно сильным соперником, без обид для Бермейна Стиверна. Кубинский «Кинг-конг» возвращается в ринг после вынужденного пропуска чемпионского боя и имеет все шансы дать хорошую взбучку действующему чемпиону.
Уайлдер получит за бой c "Кинг-Конгом" гонорар в $ 2,1 миллиона. Ортис получит вчетверо меньше — его заработок за бой составит только $ 500 тыс. При этом изначально Деонтей требовал больший гонорар за поединок, однако сторонам удалось достичь соглашения на двух миллионах.

Запись имеет всё (выходы бойцов на ринг, представления, повторы между раундами и послематчевые интервью!)
Качество видео: HDTVRip 720p
Формат: ts
Видео: 1280x720, H.264, 50 fps, 7852kbps
Аудио: AC3, 48 kHz, 2 ch, 256 kbps

Продолжительность

01:11:48

Тех.характеристики

General
Format : MPEG-TS
File size : 4.28 GiB
Duration : 1h 11mn
Overall bit rate mode : Variable
Overall bit rate : 8 532 Kbps
Maximum Overall bit rate : 35.5 Mbps
Video
ID : 4113 (0x1011)
Menu ID : 1 (0x1)
Format : AVC
Format/Info : Advanced Video Codec
Format profile : High@L4.0
Format settings, CABAC : Yes
Format settings, ReFrames : 3 frames
Codec ID : 27
Duration : 1h 11mn
Bit rate mode : Variable
Bit rate : 7 852 Kbps
Maximum bit rate : 15.0 Mbps
Width : 1 280 pixels
Height : 720 pixels
Display aspect ratio : 16:9
Frame rate : 50.000 fps
Standard : Component
Color space : YUV
Chroma subsampling : 4:2:0
Bit depth : 8 bits
Scan type : Progressive
Bits/(Pixel*Frame) : 0.170
Stream size : 3.94 GiB (92%)
Color primaries : BT.709
Transfer characteristics : BT.709
Matrix coefficients : BT.709
Audio
ID : 4352 (0x1100)
Menu ID : 1 (0x1)
Format : AC-3
Format/Info : Audio Coding 3
Mode extension : CM (complete main)
Format settings, Endianness : Big
Codec ID : 129
Duration : 1h 11mn
Bit rate mode : Constant
Bit rate : 256 Kbps
Channel(s) : 2 channels
Channel positions : Front: L R
Sampling rate : 48.0 KHz
Bit depth : 16 bits
Compression mode : Lossy
Stream size : 131 MiB (3%)
Language : English

Скриншоты


-ПРОСЬБА! ОСТАВАЙТЕСЬ НА РАЗДАЧЕ КАК МОЖНО ДОЛЬШЕ! СПАСИБО! ab
[Профиль] [ЛС]

BTW

Пол: Мужской

Стаж: 3 года 6 месяца

Сообщений: 658

Откуда: Las Vegas, Nevada

Создавать темы 06-Мар-2018 19:27 (спустя 1 день)

[Цитировать]

Спасибо отдельное за Скай Спортс.
[Профиль] [ЛС]
Показать сообщения:    
Ответить на тему

Текущее время: 10-Дек 15:03

Часовой пояс: UTC + 1



Вы не можете начинать темы
Вы не можете отвечать на сообщения
Вы не можете редактировать свои сообщения
Вы не можете удалять свои сообщения
Вы не можете голосовать в опросах
Вы не можете прикреплять файлы к сообщениям
Вы не можете скачивать файлы