Боксерское шоу "Трамплин" [26.06.2015/Boxing/MPEG-TS 576p/RU] :: Fight Tracker Russia

Боксерское шоу "Трамплин" [26.06.2015/Boxing/MPEG-TS 576p/RU]

Ответить на тему
 
Автор Сообщение

Romapunk ®

Пол: Мужской

Стаж: 2 года 3 месяца

Сообщений: 477

Откуда: Вологодская область

Создавать темы 27-Июн-2015 21:30

[Цитировать]


Описание: Боксерское шоу "Трамплин"
Дата проведения: 26/06/2015
Место проведения: Россия/Москва
Язык комментариев: Русский
Продолжительность: 04:45:00
Примечание: Присутствует реклама

Данные видео

General
ID : 22561 (0x5821)
Complete name : 26 июня 18-30 Бокс. Боксерское шоу Трамплин. Прямая трансляция из Москвы.ts
Format : MPEG-TS
File size : 337 MiB
Duration : 29mn 52s
Overall bit rate mode : Constant
Overall bit rate : 1 577 Kbps
Video
ID : 69 (0x45)
Menu ID : 1 (0x1)
Format : AVC
Format/Info : Advanced Video Codec
Format profile : High@L3
Format settings, CABAC : Yes
Format settings, ReFrames : 4 frames
Codec ID : 27
Duration : 29mn 52s
Bit rate : 1 372 Kbps
Width : 720 pixels
Height : 576 pixels
Display aspect ratio : 4:3
Frame rate : 25.000 fps
Standard : PAL
Color space : YUV
Chroma subsampling : 4:2:0
Bit depth : 8 bits
Scan type : Progressive
Bits/(Pixel*Frame) : 0.132
Stream size : 293 MiB (87%)
Writing library : x264 core 124
Audio
ID : 68 (0x44)
Menu ID : 1 (0x1)
Format : MPEG Audio
Format version : Version 1
Format profile : Layer 3
Mode : Joint stereo
Mode extension : MS Stereo
Codec ID : 3
Duration : 29mn 52s
Bit rate mode : Constant
Bit rate : 128 Kbps
Channel(s) : 2 channels
Sampling rate : 44.1 KHz
Compression mode : Lossy
Delay relative to video : -113ms
Stream size : 27.4 MiB (8%)
Language : Russian

Скриншоты





Последний раз редактировалось: Romapunk (2015-06-27 22:20), всего редактировалось 1 раз
[Профиль] [ЛС]

zorro

Пол: Мужской

Стаж: 2 года 2 месяца

Сообщений: 1569

Откуда: アラスカ、ロシア

Создавать темы 27-Июн-2015 21:40 (спустя 9 минут)

[Цитировать]

Спасибо большое!
[Профиль] [ЛС]

Allll

Пол: Не указан

Стаж: 2 года

Сообщений: 199

Создавать темы 06-Июл-2015 01:58 (спустя 8 дней)

[Цитировать]

это шоу ,организовал если я не ошибаюсь промоушен Хрюнова ,дела у него идут не лучшим образом,перешел на "ресторанный" уровень!!!!Если от него братья Чудиновы сбегут ,то только рестораны станут его уделом !!!!!Спасибо за раздачу
[Профиль] [ЛС]
Показать сообщения:    
Ответить на тему

Текущее время: 30-Мар 01:38

Часовой пояс: UTC + 1



Вы не можете начинать темы
Вы не можете отвечать на сообщения
Вы не можете редактировать свои сообщения
Вы не можете удалять свои сообщения
Вы не можете голосовать в опросах
Вы не можете прикреплять файлы к сообщениям
Вы не можете скачивать файлы