UFC Fight Night 69: Jędrzejczyk vs. Penne [20.06.2015/MPEG-TS 576p/RU]

Ответить на тему
 
Автор Сообщение

Romapunk ®

Пол: Мужской

Стаж: 2 года 9 месяцев

Сообщений: 692

Откуда: Вологодская область

Создавать темы 27-Июн-2015 14:57

[Цитировать]


Описание: UFC Fight Night 69: Jędrzejczyk vs. Penne
Дата проведения: 20/06/2015
Место проведения: Германия/Берлин
Язык комментариев: Русский
Продолжительность: 04:00:00
Примечание: Присутствует реклама

Данные видео

General
ID : 1813 (0x715)
Complete name : UFC Fight Night 69 Jędrzejczyk vs. Penne.ts
Format : MPEG-TS
File size : 2.63 GiB
Duration : 3h 59mn
Overall bit rate mode : Variable
Overall bit rate : 1 570 Kbps
Video
ID : 69 (0x45)
Menu ID : 1 (0x1)
Format : AVC
Format/Info : Advanced Video Codec
Format profile : High@L3
Format settings, CABAC : Yes
Format settings, ReFrames : 4 frames
Codec ID : 27
Duration : 3h 59mn
Bit rate : 1 372 Kbps
Width : 720 pixels
Height : 576 pixels
Display aspect ratio : 4:3
Frame rate : 25.000 fps
Standard : PAL
Color space : YUV
Chroma subsampling : 4:2:0
Bit depth : 8 bits
Scan type : Progressive
Bits/(Pixel*Frame) : 0.132
Stream size : 2.28 GiB (87%)
Writing library : x264 core 124
Audio
ID : 68 (0x44)
Menu ID : 1 (0x1)
Format : MPEG Audio
Format version : Version 1
Format profile : Layer 3
Mode : Joint stereo
Mode extension : MS Stereo
Codec ID : 3
Duration : 3h 59mn
Bit rate mode : Constant
Bit rate : 128 Kbps
Channel(s) : 2 channels
Sampling rate : 44.1 KHz
Compression mode : Lossy
Delay relative to video : -30ms
Stream size : 220 MiB (8%)
Language : Russian

Скриншоты



[Профиль] [ЛС]

zorro

Пол: Женский

Стаж: 2 года 8 месяцев

Сообщений: 2049

Откуда: 圣塔芭芭拉

Создавать темы 27-Июн-2015 15:01 (спустя 3 минуты)

[Цитировать]

Спасибо!
[Профиль] [ЛС]

zorro

Пол: Женский

Стаж: 2 года 8 месяцев

Сообщений: 2049

Откуда: 圣塔芭芭拉

Создавать темы 09-Сен-2015 15:59 (спустя 2 месяца 12 дней)

[Цитировать]

Ни у кого данного файла не осталось?
[Профиль] [ЛС]
Показать сообщения:    
Ответить на тему

Текущее время: 19-Окт 17:37

Часовой пояс: UTC + 1



Вы не можете начинать темы
Вы не можете отвечать на сообщения
Вы не можете редактировать свои сообщения
Вы не можете удалять свои сообщения
Вы не можете голосовать в опросах
Вы не можете прикреплять файлы к сообщениям
Вы не можете скачивать файлы