SUPERKOMBAT World Grand Prix Series.Stage 3 [19.06.2015/K-1/Mpeg-TS 576p/RU] :: Fight Tracker Russia

SUPERKOMBAT World Grand Prix Series.Stage 3 [19.06.2015/K-1/Mpeg-TS 576p/RU]

Ответить на тему
 
Автор Сообщение

Romapunk ®

Пол: Мужской

Стаж: 2 года 5 месяцев

Сообщений: 521

Откуда: Вологодская область

Создавать темы 20-Июн-2015 17:10

[Цитировать]


Описание: SUPERKOMBAT World Grand Prix III 2015
Дата проведения: 19/06/2015
Место проведения: Румыния
Язык комментариев: Русский
Продолжительность: 02:00:00

Данные видео

General
ID : 25627 (0x641B)
Complete name :19 июня 2200 Кикбоксинг. SUPERKOMBAT World Grand Prix III 2015.
Format : MPEG-TS
File size : 1.32 GiB
Duration : 1h 59mn
Overall bit rate mode : Variable
Overall bit rate : 1 579 Kbps
Video
ID : 69 (0x45)
Menu ID : 1 (0x1)
Format : AVC
Format/Info : Advanced Video Codec
Format profile : High@L3
Format settings, CABAC : Yes
Format settings, ReFrames : 4 frames
Codec ID : 27
Duration : 1h 59mn
Bit rate : 1 372 Kbps
Width : 720 pixels
Height : 576 pixels
Display aspect ratio : 16:9
Frame rate : 25.000 fps
Standard : PAL
Color space : YUV
Chroma subsampling : 4:2:0
Bit depth : 8 bits
Scan type : Progressive
Bits/(Pixel*Frame) : 0.132
Stream size : 1.15 GiB (87%)
Writing library : x264 core 124
Audio
ID : 68 (0x44)
Menu ID : 1 (0x1)
Format : MPEG Audio
Format version : Version 1
Format profile : Layer 3
Codec ID : 3
Duration : 1h 59mn
Bit rate mode : Constant
Bit rate : 128 Kbps
Channel(s) : 1 channel
Sampling rate : 44.1 KHz
Compression mode : Lossy
Delay relative to video : -106ms
Stream size : 110 MiB (8%)
Language : Russian

Скриншоты



[Профиль] [ЛС]

romanian

Пол: Не указан

Стаж: 2 года

Сообщений: 10

Создавать темы 20-Июн-2015 19:00 (спустя 1 час 50 минут)

[Цитировать]

Not so good quality.
[Профиль] [ЛС]

Romapunk ®

Пол: Мужской

Стаж: 2 года 5 месяцев

Сообщений: 521

Откуда: Вологодская область

Создавать темы 20-Июн-2015 19:04 (спустя 3 минуты)

[Цитировать]

1550Not so good quality.
Read parameters)
SD Quality...
[Профиль] [ЛС]

Superserafim

Пол: Мужской

Стаж: 2 года 5 месяцев

Сообщений: 2163

Создавать темы 21-Июн-2015 00:14 (спустя 5 часов)

[Цитировать]

Romapunk, не обращай внимания это несколько странный пользователь с Румынии.
Очень просил меня выложить мою коллекцию турниров Суперкомбат за деньги, а я ему предложил сделать несколько раздач на нашем трекере, после которых постепенно выложу свои турниры. Короче, а воз и ныне там...
[Профиль] [ЛС]

Romapunk ®

Пол: Мужской

Стаж: 2 года 5 месяцев

Сообщений: 521

Откуда: Вологодская область

Создавать темы 21-Июн-2015 00:31 (спустя 17 минут)

[Цитировать]

1552Romapunk, не обращай внимания это несколько странный пользователь с Румынии.
Очень просил меня выложить мою коллекцию турниров Суперкомбат за деньги, а я ему предложил сделать несколько раздач на нашем трекере, после которых постепенно выложу свои турниры. Короче, а воз и ныне там...
Я читал его размышлениия...
Не.... я видел его посты.С одной стороны он конечно правильно говорит...
Ладно...пусть не качают...Мое дело предложить...
[Профиль] [ЛС]

Allll

Пол: Не указан

Стаж: 2 года 2 месяца

Сообщений: 201

Создавать темы 24-Июн-2015 01:48 (спустя 3 дня)

[Цитировать]

может он просто не знает как создать раздачу)))
[Профиль] [ЛС]

Allll

Пол: Не указан

Стаж: 2 года 2 месяца

Сообщений: 201

Создавать темы 24-Июн-2015 01:49 (спустя 1 минута)

[Цитировать]

а то тут все по русски )))
[Профиль] [ЛС]

Superserafim

Пол: Мужской

Стаж: 2 года 5 месяцев

Сообщений: 2163

Создавать темы 24-Июн-2015 17:53 (спустя 16 часов)

[Цитировать]

Ну я в меру своих познаний объяснялся с ним на английском
[Профиль] [ЛС]
Показать сообщения:    
Ответить на тему

Текущее время: 28-Май 15:53

Часовой пояс: UTC + 1



Вы не можете начинать темы
Вы не можете отвечать на сообщения
Вы не можете редактировать свои сообщения
Вы не можете удалять свои сообщения
Вы не можете голосовать в опросах
Вы не можете прикреплять файлы к сообщениям
Вы не можете скачивать файлы