Umar Salamov vs Tomas Adamek & Undercard [13.06.2015/480p/UKR/RU] :: Fight Tracker Russia

Umar Salamov vs Tomas Adamek & Undercard [13.06.2015/480p/UKR/RU]

Ответить на тему
 
Автор Сообщение

Romapunk ®

Пол: Мужской

Стаж: 2 года 5 месяцев

Сообщений: 521

Откуда: Вологодская область

Создавать темы 16-Июн-2015 08:51

[Цитировать]


Описание: Umar Salamov vs Tomas Adamek & Undercard
Дата проведения: 13/06/2015
Место проведения: Украина
Язык комментариев: Украинский/Русский
Примечание: Присутствует реклама!!!

Список поединков

1. полутяжелый вес Umar Salamov 12(10)-0-0 vs Tomas Adamek 23(9)-10(3)-2
WBO European полутяжелый вес титул
2. тяжелый вес Iago Kiladze 23(16)-1(1)-0 vs Lukasz Rusiewicz 19(10)-19(2)-0
3. тяжелый вес Ismayl Sillah 21(17)-2(2)-0 vs Arturs Kulikauskis 16(8)-24(3)-5
4. тяжелый вес Serhiy Radchenko 2-0-0 vs Murod Azimov 6(1)-3-1

Данные видео

General
ID : 2873 (0xB39)
Complete name :13 июня 2230 Профессиональный бокс. Прямая трансляция из Украины.ts
Format : MPEG-TS
File size : 1 023 MiB
Duration : 1h 29mn
Overall bit rate mode : Variable
Overall bit rate : 1 591 Kbps
Video
ID : 69 (0x45)
Menu ID : 1 (0x1)
Format : AVC
Format/Info : Advanced Video Codec
Format profile : High@L3
Format settings, CABAC : Yes
Format settings, ReFrames : 4 frames
Codec ID : 27
Duration : 1h 29mn
Bit rate : 1 372 Kbps
Width : 640 pixels
Height : 480 pixels
Display aspect ratio : 4:3
Frame rate : 25.000 fps
Color space : YUV
Chroma subsampling : 4:2:0
Bit depth : 8 bits
Scan type : Progressive
Bits/(Pixel*Frame) : 0.179
Stream size : 889 MiB (87%)
Writing library : x264 core 124
Audio
ID : 68 (0x44)
Menu ID : 1 (0x1)
Format : MPEG Audio
Format version : Version 1
Format profile : Layer 3
Mode : Joint stereo
Mode extension : MS Stereo
Codec ID : 3
Duration : 1h 29mn
Bit rate mode : Constant
Bit rate : 128 Kbps
Channel(s) : 2 channels
Sampling rate : 44.1 KHz
Compression mode : Lossy
Delay relative to video : -111ms
Stream size : 82.3 MiB (8%)
Language : Ukrainian

Скриншоты





Последний раз редактировалось: Romapunk (2015-06-18 11:41), всего редактировалось 1 раз
[Профиль] [ЛС]

Superserafim

Пол: Мужской

Стаж: 2 года 5 месяцев

Сообщений: 2175

Создавать темы 16-Июн-2015 12:19 (спустя 3 часа)

[Цитировать]

Спасибо большое!
А я прозевал время и не успел записать! ;)
[Профиль] [ЛС]
Показать сообщения:    
Ответить на тему

Текущее время: 30-Май 12:12

Часовой пояс: UTC + 1



Вы не можете начинать темы
Вы не можете отвечать на сообщения
Вы не можете редактировать свои сообщения
Вы не можете удалять свои сообщения
Вы не можете голосовать в опросах
Вы не можете прикреплять файлы к сообщениям
Вы не можете скачивать файлы