Грозная битва 3 [13.06.2015/MMA/MPEG-TS/RU] :: Fight Tracker Russia

Грозная битва 3 [13.06.2015/MMA/MPEG-TS/RU]

Ответить на тему
 
Автор Сообщение

Romapunk ®

Пол: Мужской

Стаж: 2 года 4 месяца

Сообщений: 505

Откуда: Вологодская область

Создавать темы 15-Июн-2015 07:18

[Цитировать]


Описание:
Грозная битва 3
Дата проведения: 13/06/2015
Место проведения: Грозный/Россия
Язык комментариев: Русский
Примечание: Присутствует реклама!!!

Список поединков

16. 93 кг Леонардо Гаслинг (4-1, Бразилия) vs. Абдул-Керим Эдилов (15-4,”Ахмат”)
15. 93 кг Малик Мерад (19-13, Франция) vs. Максим Гришин (19-6, Россия)
14. 70,3 кг Гермес Франка (22-13, Бразилия) vs. Шамиль Завуров (26-3-1,”Ахмат”)
13. 56,7 кг Олег Михайлов (5-1, Украина) vs. Юнус Евлоев (13-7, “Ахмат”)
12. 77,1 кг Ясубей Эномото (12-6, Швейцария) vs. Абубакар Вагаев (4-0, “Ахмат”)
11. 61,2 кг Сатир Кичуков (13-2, Болгария) vs. Михаил Малютин (30-12, “Ахмат”)
10. 65,8 кг Мамаду Гуейе (7-2, Франция) vs. Хусейн Асхабов (10-0, “Ахмат”)
9. 65,8 кг Франциско Гульдерлан (39-16, Бразилия) vs. Салман Жамалдаев (7-1, “Ахмат”)
8. 70,3 кг Грегор Вейбл (8-2, Швейцария) vs. Хасан Асхабов (9-1, “Ахмат”)
7. 61,2 кг Денис Муцнек (9-1, Казахстан) vs. Рахман Дудаев (7-3, “Ахмат”)
6. 77,1 кг Василий Федорич (17-7, Украина) vs. Беслан Ушуков (5-1, “Ахмат”)
5. 70,3 кг Артур Лемос (7-0, Португалия) vs. Зураб Бетергараев (3-0-1, “Ахмат”)
4. 84 кг Девид Васич (7-2, Хорватия) vs. Саламу Абдурахманов (3-0, “Ахмат”)
3. 77,1 кг Виталий Слипенко (1-0,Крым) vs. Черси Дудаев (3-0, “Ахмат”)
2. 84 кг Сухроб Рахимбеков (1-0, Узбекистан) vs. Арби Мадаев (1-0, “Ахмат”)
1. 56,7 кг Сергей Федотенко (1-0, Украина) vs. Шамиль Ирасханов (1-0, “Ахмат”)

Данные видео

General
ID : 33422 (0x828E)
Complete name : 13 июня 1900 Смешанные единоборства. Грозная Битва - 3. Прямая трансляция из Грозного.ts
Format : MPEG-TS
File size : 3.28 GiB
Duration : 4h 59mn
Overall bit rate mode : Variable
Overall bit rate : 1 567 Kbps
Video
ID : 69 (0x45)
Menu ID : 1 (0x1)
Format : AVC
Format/Info : Advanced Video Codec
Format profile : High@L3
Format settings, CABAC : Yes
Format settings, ReFrames : 4 frames
Codec ID : 27
Duration : 4h 13mn
Bit rate : 1 372 Kbps
Width : 720 pixels
Height : 576 pixels
Display aspect ratio : 4:3
Frame rate : 25.000 fps
Standard : PAL
Color space : YUV
Chroma subsampling : 4:2:0
Bit depth : 8 bits
Scan type : Progressive
Bits/(Pixel*Frame) : 0.132
Stream size : 2.41 GiB (73%)
Writing library : x264 core 124
Audio
ID : 68 (0x44)
Menu ID : 1 (0x1)
Format : MPEG Audio
Format version : Version 1
Format profile : Layer 3
Mode : Joint stereo
Mode extension : MS Stereo
Codec ID : 3
Duration : 4h 59mn
Bit rate mode : Constant
Bit rate : 128 Kbps
Channel(s) : 2 channels
Sampling rate : 44.1 KHz
Compression mode : Lossy
Delay relative to video : -75ms
Stream size : 275 MiB (8%)
Language : Russian

Скриншоты





Последний раз редактировалось: Romapunk (2015-06-15 08:13), всего редактировалось 2 раз(а)
[Профиль] [ЛС]

Romapunk ®

Пол: Мужской

Стаж: 2 года 4 месяца

Сообщений: 505

Откуда: Вологодская область

Создавать темы 15-Июн-2015 07:46 (спустя 28 минут)

[Цитировать]

Дорогие файттрекеровцы!С сегодняшнего дня я не смогу поддерживать раздачу больше месяца,так как банально кончается место на винте.У меня к Вам просьба:не уходите с раздачи.Я не смотрю отечественные турниры с недавнего времени.Все делается для Вас!Спасибо за внимание...
[Профиль] [ЛС]
Показать сообщения:    
Ответить на тему

Текущее время: 23-Апр 18:54

Часовой пояс: UTC + 1



Вы не можете начинать темы
Вы не можете отвечать на сообщения
Вы не можете редактировать свои сообщения
Вы не можете удалять свои сообщения
Вы не можете голосовать в опросах
Вы не можете прикреплять файлы к сообщениям
Вы не можете скачивать файлы