Superior Challenge 11 (Full Event) [29.11.2014/MMA/480p/ENG] :: Fight Tracker Russia

Superior Challenge 11 (Full Event) [29.11.2014/MMA/480p/ENG]

Ответить на тему
 
Автор Сообщение

Romapunk ®

Пол: Мужской

Стаж: 2 года 1 месяц

Сообщений: 446

Откуда: Вологодская область

Создавать темы 14-Июн-2015 08:00

[Цитировать]


Описание: Superior Challenge 11
Дата проведения: 29/11/2014
Место проведения: AXA Sports Center/Sodertalje,Sweden
Язык комментариев: Английский
Автор рипа: FightCreature

Список поединков

Main Card
Diego Nunes vs. Joachim Hansen
Edward Arthur vs. Martin Akhtar
Max Nunes vs. Patrick Vallee
David Bielkheden vs. Florent Betorangal
Besam Yousef vs. Max Duarte
Diego Gonzalez vs. Karim Mammar
Abbe Joof vs. Mohamed Sayah
Prelims
Simon Skold vs. Dan Gibbon
Fernando Gonzalez vs. Roberto Pastuch
Michel Ersoy vs. Martin Fouda
Jonathan Svensson vs. Derek Gauthier
Michael Yayo vs. Faissal Harrar
Paul Amelia vs. David Diaz

Данные видео

General
Complete name :Superior.Challenge.11.IPPV.StreamRip-FightCreature
Format : MPEG-4
Format profile : Base Media
Codec ID : isom
File size : 2.16 GiB
Duration : 2h 50mn
Overall bit rate : 1 808 Kbps
Writing application : Lavf54.63.100
Video
ID : 2
Format : AVC
Format/Info : Advanced Video Codec
Format profile : High@L3.1
Format settings, CABAC : Yes
Format settings, ReFrames : 4 frames
Codec ID : avc1
Codec ID/Info : Advanced Video Coding
Duration : 2h 50mn
Bit rate : 1 667 Kbps
Width : 854 pixels
Height : 480 pixels
Display aspect ratio : 16:9
Frame rate mode : Constant
Frame rate : 29.970 fps
Color space : YUV
Chroma subsampling : 4:2:0
Bit depth : 8 bits
Scan type : Progressive
Bits/(Pixel*Frame) : 0.136
Stream size : 1.99 GiB (92%)
Writing library : x264 core 139 r2363 2ccee72
Audio
ID : 1
Format : AAC
Format/Info : Advanced Audio Codec
Format profile : LC
Codec ID : 40
Duration : 2h 50mn
Bit rate mode : Constant
Bit rate : 132 Kbps
Channel(s) : 2 channels
Channel positions : Front: L R
Sampling rate : 44.1 KHz
Compression mode : Lossy
Stream size : 160 MiB (7%)

Скриншоты



[Профиль] [ЛС]
Показать сообщения:    
Ответить на тему

Текущее время: 24-Янв 12:15

Часовой пояс: UTC + 1



Вы не можете начинать темы
Вы не можете отвечать на сообщения
Вы не можете редактировать свои сообщения
Вы не можете удалять свои сообщения
Вы не можете голосовать в опросах
Вы не можете прикреплять файлы к сообщениям
Вы не можете скачивать файлы