Fight Nights: Battle 19 + Финал клубного чемпионата России по MMA [11.06.2015/MPEG-TS 576p/RU]

Ответить на тему
 
Автор Сообщение

Romapunk ®

Пол: Мужской

Стаж: 2 года 10 месяцев

Сообщений: 740

Откуда: Вологодская область

Создавать темы 12-Июн-2015 20:18

[Цитировать]


Описание: Fight Nights: Battle 19 + Финал клубного чемпионата России по MMA
Дата проведения: 11/06/2015
Место проведения: Россия/Москва
Язык комментариев: Русский
Продолжительность: 03:00:00
Примечание: Присутствует реклама

Данные видео

General
ID : 33422 (0x828E)
Complete name : 11 июня 1900 Смешанные единоборства. FIGHT NIGHTS БИТВА 19.ts
Format : MPEG-TS
File size : 1.76 GiB
Duration : 2h 39mn
Overall bit rate mode : Variable
Overall bit rate : 1 575 Kbps
Video
ID : 69 (0x45)
Menu ID : 1 (0x1)
Format : AVC
Format/Info : Advanced Video Codec
Format profile : High@L3
Format settings, CABAC : Yes
Format settings, ReFrames : 4 frames
Codec ID : 27
Duration : 1h 44mn
Bit rate : 1 372 Kbps
Width : 720 pixels
Height : 576 pixels
Display aspect ratio : 4:3
Frame rate : 25.000 fps
Standard : PAL
Color space : YUV
Chroma subsampling : 4:2:0
Bit depth : 8 bits
Scan type : Progressive
Bits/(Pixel*Frame) : 0.132
Stream size : 1 018 MiB (57%)
Writing library : x264 core 124
Audio
ID : 68 (0x44)
Menu ID : 1 (0x1)
Format : MPEG Audio
Format version : Version 1
Format profile : Layer 3
Mode : Joint stereo
Mode extension : MS Stereo
Codec ID : 3
Duration : 2h 39mn
Bit rate mode : Constant
Bit rate : 128 Kbps
Channel(s) : 2 channels
Sampling rate : 44.1 KHz
Compression mode : Lossy
Delay relative to video : -16ms
Stream size : 146 MiB (8%)
Language : Russian

Скриншоты




[Профиль] [ЛС]

Создавать темы 13-Июн-2015 02:55 (спустя 6 часов)

Топик был перенесен из форума Другие в форум Fight Nights
Superserafim
 

Superserafim

Пол: Мужской

Стаж: 2 года 10 месяцев

Сообщений: 2489

Создавать темы 13-Июн-2015 03:26 (спустя 7 часов)

[Цитировать]

Fight Card:
Финал клубного чемпионата России по MMA:
Dinislam Kamavov vs Sultan Abdurazakov
Magomed Yunusilau vs Bakhachaliev
Magomedrasul Gasanov vs Saygid Igazakhmaev
Khalid Murtazaliev vs Abusupyan Alikhanov
Super Fights:
Isaak Pimentel vs Yusup Saadulaev
Vladimir Mineev vs Xavier Foupa-Pokam
[Профиль] [ЛС]

Allll

Пол: Не указан

Стаж: 2 года 7 месяцев

Сообщений: 226

Создавать темы 13-Июн-2015 17:27 (спустя 14 часов)

[Цитировать]

че не внесли в трансляцию ,бой Рассула Мирзаева???????или его запретили по Российскому тв показывать ?
[Профиль] [ЛС]

Superserafim

Пол: Мужской

Стаж: 2 года 10 месяцев

Сообщений: 2489

Создавать темы 14-Июн-2015 00:56 (спустя 7 часов)

[Цитировать]

Allll, не известно.
Но вообще-то после суда бои Рассула Мирзаева транслировали уже (то ли по ТК Боец, то ли по ТК Бойцовский клуб - точно не помню).
[Профиль] [ЛС]

Romapunk ®

Пол: Мужской

Стаж: 2 года 10 месяцев

Сообщений: 740

Откуда: Вологодская область

Создавать темы 14-Июн-2015 11:54 (спустя 10 часов)

[Цитировать]

1458Allll, не известно.
Но вообще-то после суда бои Рассула Мирзаева транслировали уже (то ли по ТК Боец, то ли по ТК Бойцовский клуб - точно не помню).
Битва звезд 3 в конце прошлого года была.Главным событием был бой Мирзаева с бразильцем.БК точно транслировал.
[Профиль] [ЛС]
Показать сообщения:    
Ответить на тему

Текущее время: 17-Ноя 18:17

Часовой пояс: UTC + 1



Вы не можете начинать темы
Вы не можете отвечать на сообщения
Вы не можете редактировать свои сообщения
Вы не можете удалять свои сообщения
Вы не можете голосовать в опросах
Вы не можете прикреплять файлы к сообщениям
Вы не можете скачивать файлы