Ermak Prime Selection 2015. Stage 1 [11.06.2015/MMA/MPEG-TS 576p/RU] :: Fight Tracker Russia

Ermak Prime Selection 2015. Stage 1 [11.06.2015/MMA/MPEG-TS 576p/RU]

Ответить на тему
 
Автор Сообщение

Romapunk ®

Пол: Мужской

Стаж: 2 года 5 месяцев

Сообщений: 521

Откуда: Вологодская область

Создавать темы 12-Июн-2015 13:16

[Цитировать]


Описание: Ermak Prime Selection 2015. Stage 1
Дата проведения: 11/06/2015
Место проведения: Краснодар/Россия
Язык комментариев: Русский
Продолжительность: 02:30:00
Примечание: Присутствует реклама

Список поединков

9. ММА, до 57 кг Виталий Бранчук (Украина, Днепропетровск) - Вартан Асатрян (Россия, Краснодар)
8. MMA, до 77 кг: Джасур Алаберганов (Россия, Санкт-петербург) - Кямрян Аббасов (Россия, Новороссийск)
7. ММА, до 77 кг: Ахад Мамедов (Азербайджан, Баку) - Джамбулат Жерештиев (Россия, Крымск)
6. ММА, до 77 кг: Гусейн Алиев (Азербайджан, Баку) - Мухамед Берханов (Россия, Нальчик)
5. ММА, до 77 кг: Ансагар "Торнадо" Кусаинов (Казахстан, Алмааты)- Александр Изотов (Россия, Брянск)
4. ММА, до 70 кг: Арсений Петров (Россия, Ростов-на-Дону) - Артур Васильев (Россия, Краснодар)
3. ММА, до 70 кг: Дмитрий Коробейников (Россия, Черкеск) - Арсен Раупов (Россия, Новороссийск)
2. ММА, до 70 кг: Ермек Тлаулов (Россия, Алмааты) - Иван Якубов (Россия, Ставрополь)
1. ММА, до 70 кг: Джефер Эсмиев (Азербайджан, Баку) - Рассул Эдиев (Россия, Грозный).

Данные видео

General
ID : 33422 (0x828E)
Complete name : 11 июня 1930 Смешанные единоборства. ERMAK PRIME SELECTION 2015 STAGE 1.ts
Format : MPEG-TS
File size : 2.07 GiB
Duration : 3h 14mn
Overall bit rate mode : Variable
Overall bit rate : 1 524 Kbps
Video
ID : 69 (0x45)
Menu ID : 1 (0x1)
Format : AVC
Format/Info : Advanced Video Codec
Format profile : High@L3
Format settings, CABAC : Yes
Format settings, ReFrames : 4 frames
Codec ID : 27
Duration : 22h 44mn
Bit rate : 1 372 Kbps
Width : 720 pixels
Height : 576 pixels
Display aspect ratio : 4:3
Frame rate : 25.000 fps
Standard : PAL
Color space : YUV
Chroma subsampling : 4:2:0
Bit depth : 8 bits
Scan type : Progressive
Bits/(Pixel*Frame) : 0.132
Stream size : 12.6 GiB
Writing library : x264 core 124
Audio
ID : 68 (0x44)
Menu ID : 1 (0x1)
Format : MPEG Audio
Format version : Version 1
Format profile : Layer 3
Mode : Joint stereo
Mode extension : MS Stereo
Codec ID : 3
Duration : 3h 14mn
Bit rate mode : Constant
Bit rate : 128 Kbps
Channel(s) : 2 channels
Sampling rate : 44.1 KHz
Compression mode : Lossy
Delay relative to video : 23ms
Stream size : 178 MiB (8%)
Language : Russian

Скриншоты



[Профиль] [ЛС]

Создавать темы 25-Июл-2015 14:28 (спустя 1 месяц 13 дней)

Топик был перенесен из форума Другие в форум Tech-Krep FC
Superserafim
 
Показать сообщения:    
Ответить на тему

Текущее время: 30-Май 12:10

Часовой пояс: UTC + 1



Вы не можете начинать темы
Вы не можете отвечать на сообщения
Вы не можете редактировать свои сообщения
Вы не можете удалять свои сообщения
Вы не можете голосовать в опросах
Вы не можете прикреплять файлы к сообщениям
Вы не можете скачивать файлы