WBK [05.06.2015/MMA/336p/CHN] :: Fight Tracker Russia

WBK [05.06.2015/MMA/336p/CHN]

Ответить на тему
 
Автор Сообщение

Romapunk ®

Пол: Мужской

Стаж: 2 года 3 месяца

Сообщений: 477

Откуда: Вологодская область

Создавать темы 11-Июн-2015 19:45

[Цитировать]


Описание: WBK
Дата проведения: 05/06/2015
Место проведения: Китай
Язык комментариев: Китайский
Продолжительность: 03:22:44

Данные видео

General
Complete name : D:\WBK 05-06-2015.f4v
Format : MPEG-4
Format profile : Base Media / Version 2
Codec ID : mp42
File size : 393 MiB
Duration : 3h 22mn
Overall bit rate mode : Variable
Overall bit rate : 271 Kbps
Encoded date : UTC 2015-06-05 16:22:31
Tagged date : UTC 2015-06-05 17:45:02
Writing application : HandBrake rev6275 2015032699
Video
ID : 1
Format : AVC
Format/Info : Advanced Video Codec
Format profile : High@L3
Format settings, CABAC : Yes
Format settings, ReFrames : 6 frames
Codec ID : avc1
Codec ID/Info : Advanced Video Coding
Duration : 3h 22mn
Bit rate : 230 Kbps
Width : 640 pixels
Height : 336 pixels
Display aspect ratio : 1.905
Frame rate mode : Constant
Frame rate : 25.000 fps
Color space : YUV
Chroma subsampling : 4:2:0
Bit depth : 8 bits
Scan type : Progressive
Bits/(Pixel*Frame) : 0.043
Stream size : 333 MiB (85%)
Writing library : Provided by x264 :: H.264/MPEG-4 AVC codec -V 1.6.08
Encoded date : UTC 2015-06-05 16:22:31
Tagged date : UTC 2015-06-05 17:45:02
Color range : Limited
Color primaries : BT.601 PAL
Transfer characteristics : BT.709
Matrix coefficients : BT.601
Audio
ID : 2
Format : AAC
Format/Info : Advanced Audio Codec
Format profile : HE-AAC / LC
Codec ID : 40
Duration : 3h 22mn
Bit rate mode : Variable
Bit rate : 32.0 Kbps
Maximum bit rate : 37.1 Kbps
Channel(s) : 2 channels
Channel positions : Front: L R
Sampling rate : 44.1 KHz / 22.05 KHz
Compression mode : Lossy
Stream size : 46.4 MiB (12%)
Title : Stereo
Encoded date : UTC 2015-06-05 16:22:31
Tagged date : UTC 2015-06-05 17:45:02

Скриншоты



[Профиль] [ЛС]
Показать сообщения:    
Ответить на тему

Текущее время: 30-Мар 23:35

Часовой пояс: UTC + 1



Вы не можете начинать темы
Вы не можете отвечать на сообщения
Вы не можете редактировать свои сообщения
Вы не можете удалять свои сообщения
Вы не можете голосовать в опросах
Вы не можете прикреплять файлы к сообщениям
Вы не можете скачивать файлы