ACB 19:Baltic Challenge [30.05.2015/MMA/MPEG-TS 576p/RUS]

Ответить на тему
 
Автор Сообщение

Romapunk ®

Пол: Мужской

Стаж: 2 года 6 месяцев

Сообщений: 567

Откуда: Вологодская область

Создавать темы 05-Июн-2015 12:42

[Цитировать]


Описание: ACB 19:Baltic Challenge
Дата проведения: 30/05/2015
Место проведения: Россия/Калининград
Язык комментариев: Русский
Продолжительность: 05:00:00

Список поединков

16. (84 кг) Адам Заяц (8-1, Польша) vs Анатолий Токов (19-1, Россия)
15. (84 кг) Владимир Катыхин (30-5, Украина) vs Арби «Монстр»Агуев (18-6, Австрия)
14. (77.1 кг) Артем Шокало (13-8, Украина) vs Алихан Устарханов (4-0, Калининград, Россия)
13. (61.2 кг) Петр Ян (3-0, Россия) vs Харон Орзумиев (1-0, Россия)
12. (93+ кг) Михал Андришак (13-5, Польша) vs Заурбек Башаев (1-0, Россия)
11. (61.2 кг) Александр Плетенко (8-2, Украина) vs Олег Хромов (7-3, Калининград, Россия)
10. (70.3 кг) Якуб Ковалевич (6-1, Польша) vs Али «Халк» Багов (18-8, Нальчик, Россия)
9. (93+ кг) Салимгирей Расулов (12-6, Махачкала, Россия) vs Мухамад Вахаев (2-3, Россия)
8. (70.3 кг) Андрей Митрофанов (2-3, Украина) vs Александр Вертко (2-0, Калининград, Россия)
7. (61.2 кг) Филип Мацек (13-7, Чехия) vs Мурад Каламов (4-0, Грозный, Россия)
6. (77.1 кг) Иван Привалов (3-3, Украина) vs Антон Мор (3-0, Россия)
5. (70.3 кг) Давид Габара (4-1, Польша) vs Ильяс Омаров (2-0, Россия)
4. (70.3 кг) Евгений Куравский (2-3, Россия) vs Орхан Байрамов (0-0, Россия)
3. (77.1 кг) Дамиан Милевски (3-2, Польша) vs Асламбек Арсамиков (2-0, Польша)
2. (70.3 кг) Филип Волански (7-1, Польша) vs Тимур Гагаев (6-3, Австрия)
1. (65.8) Аркадиуш Машлинский (0-0, Польша) vs Иван Еременко (0-2, Россия)

Данные видео

General
ID : 54702 (0xD5AE)
Complete name : 30 мая 1900 Смешанные единоборства. ACB 19 Baltic Challenge. Прямая трансляция из Калининграда..ts
Format : MPEG-TS
File size : 3.29 GiB
Duration : 633ms
Overall bit rate mode : Variable
Overall bit rate : 1 674 Kbps
Video
ID : 69 (0x45)
Menu ID : 1 (0x1)
Format : AVC
Format/Info : Advanced Video Codec
Format profile : High@L3
Format settings, CABAC : Yes
Format settings, ReFrames : 4 frames
Codec ID : 27
Duration : 160ms
Bit rate : 1 372 Kbps
Width : 720 pixels
Height : 576 pixels
Display aspect ratio : 4:3
Frame rate : 25.000 fps
Standard : PAL
Color space : YUV
Chroma subsampling : 4:2:0
Bit depth : 8 bits
Scan type : Progressive
Bits/(Pixel*Frame) : 0.132
Stream size : 26.8 KiB (0%)
Writing library : x264 core 124
Audio
ID : 68 (0x44)
Menu ID : 1 (0x1)
Format : MPEG Audio
Format version : Version 1
Format profile : Layer 3
Mode : Joint stereo
Mode extension : MS Stereo
Codec ID : 3
Duration : 758ms
Bit rate mode : Constant
Bit rate : 128 Kbps
Channel(s) : 2 channels
Sampling rate : 44.1 KHz
Compression mode : Lossy
Stream size : 11.8 KiB (0%)
Language : Russian

Скриншоты



[Профиль] [ЛС]

BTW

Пол: Женский

Стаж: 2 года 1 месяц

Сообщений: 274

Откуда: Guåhån

Создавать темы 11-Сен-2015 06:33 (спустя 3 месяца 5 дней)

[Цитировать]

Встаньте, пожалуйста, на раздачу.
[Профиль] [ЛС]
Показать сообщения:    
Ответить на тему

Текущее время: 21-Июл 13:38

Часовой пояс: UTC + 1



Вы не можете начинать темы
Вы не можете отвечать на сообщения
Вы не можете редактировать свои сообщения
Вы не можете удалять свои сообщения
Вы не можете голосовать в опросах
Вы не можете прикреплять файлы к сообщениям
Вы не можете скачивать файлы