Финал чемпионата России по MMA [30.05.2015/MPEG-TS 576p/RUS] :: Fight Tracker Russia

Финал чемпионата России по MMA [30.05.2015/MPEG-TS 576p/RUS]

Ответить на тему
 
Автор Сообщение

Romapunk ®

Пол: Мужской

Стаж: 2 года 4 месяца

Сообщений: 511

Откуда: Вологодская область

Создавать темы 05-Июн-2015 12:14

[Цитировать]


Описание: Финал чемпионата России по MMA
Дата проведения: 30/05/2015
Место проведения: Россия/Омск
Язык комментариев: Русский
Продолжительность: 04:00:00

Список поединков

1. До 61,2 кг. Финал. Бахачали Бахачалиев (СКФО) — Абдулхаким Меджидов (УрФО)
2. Третье место. Шамиль Пахрудинов (ЮФО) и Олег Личковаха (СЗФО)
3. До 65,8 кг. Магомед Юнусилау (Москва) — Мансур Витаев (СКФО)
4. Третье место. Камиль Магомедов (СКФО) и Магомед Магомедов (ЮФО)
5. До 70,3 кг. Гаджи Рабаданов (Санкт-Петербург) — Али Абдулхаликов (ЦФО)
6. Третье место. Камиль Магомедов (Москва) и Динислам Камавов (Москва)
7. До 77,1 кг. Гаджимурад Хирамагомедов (Москва) — Алибег Расулов (СКФО)
8. Третье место. Шамиль Мусаев (ЦФО) и Руслан Шамилов (СЗФО)
9. До 84 кг. Шамиль Абдулаев (ДВФО) — Гамзат Хирамагомедов (Москва)
10. Третье место. Александр Кузьмицкий (СФО) и Георгий Емельянов (СФО)
11. До 93 кг. Валентин Молдавский (Крым) — Магомед Анкалаев (СКФО)
12. Третье место. Герман Якубов (Москва) и Михаил Рагозин (УрФО)
13. Свыше 93 кг. Ризван Куниев (СКФО) — Амирхан Исагаджиев (ЮФО)
14. Третье место. Энвер Салахдинов (Москва) и Рашид Сиражудинов (УрФО)

Данные видео

General #18356
ID : 18356 (0x47B4)
Complete name : 30 мая 1400 Смешанные единоборства. Чемпионат России. Прямая трансляция из Омска. - Бойцовский клуб .ts
Format : MPEG-TS
File size : 2.66 GiB
Duration : 3h 59mn
Overall bit rate mode : Variable
Overall bit rate : 1 587 Kbps
Video #69
ID : 69 (0x45)
Menu ID : 1 (0x1)
Format : AVC
Format/Info : Advanced Video Codec
Format profile : High@L3.0
Format settings, CABAC : Yes
Format settings, ReFrames : 4 frames
Codec ID : 27
Duration : 3h 59mn
Bit rate : 1 372 Kbps
Width : 720 pixels
Height : 576 pixels
Display aspect ratio : 4:3
Frame rate : 25.000 fps
Standard : PAL
Color space : YUV
Chroma subsampling : 4:2:0
Bit depth : 8 bits
Scan type : Progressive
Bits/(Pixel*Frame) : 0.132
Stream size : 2.31 GiB (87%)
Writing library : x264 core 124
Audio #68
ID : 68 (0x44)
Menu ID : 1 (0x1)
Format : MPEG Audio
Format version : Version 1
Format profile : Layer 3
Mode : Joint stereo
Mode extension : MS Stereo
Codec ID : 3
Duration : 3h 59mn
Bit rate mode : Constant
Bit rate : 128 Kbps
Channel(s) : 2 channels
Sampling rate : 44.1 KHz
Compression mode : Lossy
Delay relative to video : -69ms
Stream size : 220 MiB (8%)
Language : Russian

Скриншоты





Последний раз редактировалось: Romapunk (2015-06-05 12:27), всего редактировалось 2 раз(а)
[Профиль] [ЛС]

Superserafim

Пол: Мужской

Стаж: 2 года 4 месяца

Сообщений: 2128

Создавать темы 05-Июн-2015 12:17 (спустя 3 минуты)

[Цитировать]

Спасибо большое!
Мощная раздача!
[Профиль] [ЛС]

Romapunk ®

Пол: Мужской

Стаж: 2 года 4 месяца

Сообщений: 511

Откуда: Вологодская область

Создавать темы 05-Июн-2015 12:22 (спустя 4 минуты)

[Цитировать]

Superserafim,
Ничего мощного не вижу)
[Профиль] [ЛС]

zorro

Пол: Женский

Стаж: 2 года 2 месяца

Сообщений: 1641

Откуда: アラスカ、ロシア

Создавать темы 05-Июн-2015 12:37 (спустя 15 минут)

[Цитировать]

Спасибо за мощную раздачу)
[Профиль] [ЛС]
Показать сообщения:    
Ответить на тему

Текущее время: 26-Апр 14:41

Часовой пояс: UTC + 1



Вы не можете начинать темы
Вы не можете отвечать на сообщения
Вы не можете редактировать свои сообщения
Вы не можете удалять свои сообщения
Вы не можете голосовать в опросах
Вы не можете прикреплять файлы к сообщениям
Вы не можете скачивать файлы