RUFF 13 [07.06.2014/MMA/720p/CHN] :: Fight Tracker Russia

RUFF 13 [07.06.2014/MMA/720p/CHN]

Ответить на тему
 
Автор Сообщение

Romapunk ®

Пол: Мужской

Стаж: 2 года 5 месяцев

Сообщений: 521

Откуда: Вологодская область

Создавать темы 04-Июн-2015 16:24

[Цитировать]


Описание: RUFF 13
Дата проведения: 07/06/2014
Место проведения: Китай
Язык комментариев: Китайский
Продолжительность: 03:35:00

Список поединков

Данные видео

Format : MPEG-4
Format profile : Base Media / Version 2
Codec ID : mp42
File size : 1.65 GiB
Duration : 3h 35mn
Overall bit rate mode : Variable
Overall bit rate : 1 100 Kbps
Encoded date : UTC 2014-06-07 14:30:58
Tagged date : UTC 2014-06-07 22:47:14
Writing application : HandBrake rev5474 2014040399
Video
ID : 1
Format : AVC
Format/Info : Advanced Video Codec
Format profile : High@L4
Format settings, CABAC : Yes
Format settings, ReFrames : 6 frames
Codec ID : avc1
Codec ID/Info : Advanced Video Coding
Duration : 3h 35mn
Bit rate : 960 Kbps
Width : 1 280 pixels
Height : 720 pixels
Display aspect ratio : 16:9
Frame rate mode : Constant
Frame rate : 25.000 fps
Color space : YUV
Chroma subsampling : 4:2:0
Bit depth : 8 bits
Scan type : Progressive
Bits/(Pixel*Frame) : 0.042
Stream size : 1.44 GiB (87%)
Writing library : Provided by x264 :: H.264/MPEG-4 AVC codec -V 1.6.06
Encoded date : UTC 2014-06-07 14:30:58
Tagged date : UTC 2014-06-07 22:47:14
Color range : Limited
Color primaries : BT.709
Transfer characteristics : BT.709
Matrix coefficients : BT.709
Audio
ID : 2
Format : AAC
Format/Info : Advanced Audio Codec
Format profile : LC
Codec ID : 40
Duration : 3h 35mn
Source duration : 3h 35mn
Bit rate mode : Variable
Bit rate : 128 Kbps
Maximum bit rate : 136 Kbps
Channel(s) : 2 channels
Channel positions : Front: L R
Sampling rate : 44.1 KHz
Compression mode : Lossy
Stream size : 197 MiB (12%)
Source stream size : 197 MiB (12%)
Title : Stereo
Encoded date : UTC 2014-06-07 14:30:58
Tagged date : UTC 2014-06-07 22:47:14

Скриншоты



[Профиль] [ЛС]
Показать сообщения:    
Ответить на тему

Текущее время: 28-Май 07:52

Часовой пояс: UTC + 1



Вы не можете начинать темы
Вы не можете отвечать на сообщения
Вы не можете редактировать свои сообщения
Вы не можете удалять свои сообщения
Вы не можете голосовать в опросах
Вы не можете прикреплять файлы к сообщениям
Вы не можете скачивать файлы