BCA [30.05.2015/540p/CHN] :: Fight Tracker Russia

BCA [30.05.2015/540p/CHN]

Ответить на тему
 
Автор Сообщение

Romapunk ®

Пол: Мужской

Стаж: 2 года 5 месяцев

Сообщений: 519

Откуда: Вологодская область

Создавать темы 04-Июн-2015 13:11

[Цитировать]


Описание: BCA
Дата проведения: 30/05/2015
Место проведения: Китай
Язык комментариев: Китайский
Продолжительность: 01:54:54

Список поединков

Данные видео

General
Complete name : BCA 30-05-2015.mp4
Format : MPEG-4
Format profile : Base Media
Codec ID : isom
File size : 1 023 MiB
Duration : 1h 54mn
Overall bit rate mode : Variable
Overall bit rate : 1 245 Kbps
Writing application : Lavf55.33.100
Video #1
ID : 1
Format : AVC
Format/Info : Advanced Video Codec
Format profile : High@L3.1
Format settings, CABAC : Yes
Format settings, ReFrames : 4 frames
Codec ID : avc1
Codec ID/Info : Advanced Video Coding
Duration : 1h 54mn
Bit rate mode : Variable
Bit rate : 1 105 Kbps
Maximum bit rate : 1 669 Kbps
Width : 960 pixels
Height : 540 pixels
Display aspect ratio : 16:9
Frame rate mode : Variable
Frame rate : 25.000 fps
Minimum frame rate : 5.000 fps
Maximum frame rate : 90 000.000 fps
Color space : YUV
Chroma subsampling : 4:2:0
Bit depth : 8 bits
Scan type : Progressive
Bits/(Pixel*Frame) : 0.085
Stream size : 908 MiB (89%)
Audio #2
ID : 2
Format : AAC
Format/Info : Advanced Audio Codec
Format profile : LC
Codec ID : 40
Duration : 1h 54mn
Bit rate mode : Variable
Bit rate : 125 Kbps
Maximum bit rate : 131 Kbps
Channel(s) : 2 channels
Channel positions : Front: L R
Sampling rate : 48.0 KHz
Compression mode : Lossy
Stream size : 103 MiB (10%)

Скриншоты



[Профиль] [ЛС]

Superserafim

Пол: Мужской

Стаж: 2 года 5 месяцев

Сообщений: 2146

Создавать темы 04-Июн-2015 15:43 (спустя 2 часа 31 минута)

[Цитировать]

Круто! Спасибо!
[Профиль] [ЛС]
Показать сообщения:    
Ответить на тему

Текущее время: 25-Май 09:44

Часовой пояс: UTC + 1



Вы не можете начинать темы
Вы не можете отвечать на сообщения
Вы не можете редактировать свои сообщения
Вы не можете удалять свои сообщения
Вы не можете голосовать в опросах
Вы не можете прикреплять файлы к сообщениям
Вы не можете скачивать файлы