Hero Legends [17.05.2014/720p/CHN]

Ответить на тему
 
Автор Сообщение

Romapunk ®

Пол: Мужской

Стаж: 2 года 11 месяцев

Сообщений: 777

Откуда: Вологодская область

Создавать темы 26-Май-2015 18:27

[Цитировать]


Описание: Hero Legends
Дата проведения: 17/05/2014
Место проведения: Китай
Язык комментариев: Китайский
Продолжительность: 03:56:35

Данные видео

General
Format : MPEG-4
Format profile : Base Media / Version 2
Codec ID : mp42
File size : 1.59 GiB
Duration : 3h 56mn
Overall bit rate mode : Variable
Overall bit rate : 962 Kbps
Encoded date : UTC 2015-01-26 19:04:54
Tagged date : UTC 2015-01-27 15:24:39
Writing application : HandBrake rev4024 2015010899
Video #1
ID : 1
Format : AVC
Format/Info : Advanced Video Codec
Format profile : High@L4.0
Format settings, CABAC : Yes
Format settings, ReFrames : 6 frames
Codec ID : avc1
Codec ID/Info : Advanced Video Coding
Duration : 3h 56mn
Bit rate mode : Variable
Bit rate : 960 Kbps
Width : 1 280 pixels
Height : 720 pixels
Display aspect ratio : 16:9
Frame rate mode : Constant
Frame rate : 25.000 fps
Color space : YUV
Chroma subsampling : 4:2:0
Bit depth : 8 bits
Scan type : Progressive
Bits/(Pixel*Frame) : 0.042
Stream size : 1.59 GiB (100%)
Writing library : Provided by x264 :: H.264/MPEG-4 AVC codec -V 1.6.07
Encoded date : UTC 2015-01-26 19:04:54
Tagged date : UTC 2015-01-27 15:24:39
Color primaries : BT.709-5, BT.1361, IEC 61966-2-4, SMPTE RP177
Transfer characteristics : BT.709-5, BT.1361
Matrix coefficients : BT.709-5, BT.1361, IEC 61966-2-4 709, SMPTE RP177
Audio #2
ID : 2
Format : AAC
Format/Info : Advanced Audio Codec
Format profile : HE-AAC / LC
Codec ID : 40
Duration : 3h 56mn
Bit rate mode : Variable
Bit rate : 64.0 Kbps
Maximum bit rate : 67.6 Kbps
Channel(s) : 2 channels
Channel positions : Front: L R
Sampling rate : 44.1 KHz / 22.05 KHz
Compression mode : Lossy
Stream size : 108 MiB (7%)
Encoded date : UTC 2015-01-26 19:04:54
Tagged date : UTC 2015-01-27 15:24:39

Скриншоты



[Профиль] [ЛС]
Показать сообщения:    
Ответить на тему

Текущее время: 16-Дек 17:37

Часовой пояс: UTC + 1



Вы не можете начинать темы
Вы не можете отвечать на сообщения
Вы не можете редактировать свои сообщения
Вы не можете удалять свои сообщения
Вы не можете голосовать в опросах
Вы не можете прикреплять файлы к сообщениям
Вы не можете скачивать файлы