Legend of Victor [24.05.2015/720p/CHN]

Ответить на тему
 
Автор Сообщение

Romapunk ®

Пол: Мужской

Стаж: 2 года 9 месяцев

Сообщений: 697

Откуда: Вологодская область

Создавать темы 26-Май-2015 08:51

[Цитировать]


Описание: Legend of Victor
Дата проведения: 24/05/2015
Место проведения: Китай
Язык комментариев: Китайский
Продолжительность: 50:00

Список поединков




Данные видео

General
Compete Name : Legend of Victor 24-05-2015.mp4
Format : MPEG-4
Format profile : Base Media / Version 2
Codec ID : mp42
File size : 682 MiB
Duration : 50mn 0s
Overall bit rate mode : Variable
Overall bit rate : 1 908 Kbps
Encoded date : UTC 2015-05-23 07:06:29
Tagged date : UTC 2015-05-23 09:34:01
Writing application : HandBrake rev6275 2015032699
Video #1
ID : 1
Format : AVC
Format/Info : Advanced Video Codec
Format profile : High@L4.0
Format settings, CABAC : Yes
Format settings, ReFrames : 6 frames
Codec ID : avc1
Codec ID/Info : Advanced Video Coding
Duration : 50mn 0s
Bit rate mode : Variable
Bit rate : 1 800 Kbps
Width : 1 280 pixels
Height : 720 pixels
Display aspect ratio : 16:9
Frame rate mode : Constant
Frame rate : 25.000 fps
Color space : YUV
Chroma subsampling : 4:2:0
Bit depth : 8 bits
Scan type : Progressive
Bits/(Pixel*Frame) : 0.078
Stream size : 644 MiB (94%)
Writing library : Provided by x264 :: H.264/MPEG-4 AVC codec -V 1.6.08
Encoded date : UTC 2015-05-23 07:06:29
Tagged date : UTC 2015-05-23 09:34:01
Color primaries : BT.709-5, BT.1361, IEC 61966-2-4, SMPTE RP177
Transfer characteristics : BT.709-5, BT.1361
Matrix coefficients : BT.709-5, BT.1361, IEC 61966-2-4 709, SMPTE RP177
Audio #2
ID : 2
Format : AAC
Format/Info : Advanced Audio Codec
Format profile : LC
Codec ID : 40
Duration : 50mn 0s
Bit rate mode : Variable
Bit rate : 96.0 Kbps
Maximum bit rate : 102 Kbps
Channel(s) : 2 channels
Channel positions : Front: L R
Sampling rate : 44.1 KHz
Compression mode : Lossy
Stream size : 34.3 MiB (5%)
Encoded date : UTC 2015-05-23 07:06:29
Tagged date : UTC 2015-05-23 09:34:01

Скриншоты




[Профиль] [ЛС]
Показать сообщения:    
Ответить на тему

Текущее время: 21-Окт 00:30

Часовой пояс: UTC + 1



Вы не можете начинать темы
Вы не можете отвечать на сообщения
Вы не можете редактировать свои сообщения
Вы не можете удалять свои сообщения
Вы не можете голосовать в опросах
Вы не можете прикреплять файлы к сообщениям
Вы не можете скачивать файлы