WMC I-1 [13.01.2015/Muay Thai/378p/CHN] :: Fight Tracker Russia

WMC I-1 [13.01.2015/Muay Thai/378p/CHN]

Ответить на тему
 
Автор Сообщение

Romapunk ®

Пол: Мужской

Стаж: 2 года 5 месяцев

Сообщений: 520

Откуда: Вологодская область

Создавать темы 23-Май-2015 21:01

[Цитировать]


Описание: WMC I-1 13-01-2015
Дата проведения: 13/01/2015
Место проведения: Китай
Язык комментариев: Китайский
Продолжительность: 02:23:48

Список поединков











Данные видео

General
Complete name :WMC I-1 13-01-2015.mp4
Format : MPEG-4
Format profile : Base Media
Codec ID : isom
File size : 567 MiB
Duration : 2h 23mn
Overall bit rate mode : Variable
Overall bit rate : 551 Kbps
Video #1
ID : 1
Format : AVC
Format/Info : Advanced Video Codec
Format profile : High@L3.0
Format settings, CABAC : Yes
Format settings, ReFrames : 5 frames
Codec ID : avc1
Codec ID/Info : Advanced Video Coding
Duration : 2h 23mn
Source duration : 2h 23mn
Bit rate mode : Variable
Bit rate : 500 Kbps
Width : 672 pixels
Height : 378 pixels
Display aspect ratio : 16:9
Frame rate mode : Constant
Frame rate : 25.000 fps
Color space : YUV
Chroma subsampling : 4:2:0
Bit depth : 8 bits
Scan type : Progressive
Bits/(Pixel*Frame) : 0.079
Stream size : 514 MiB (91%)
Source stream size : 514 MiB
Audio #2
ID : 2
Format : AAC
Format/Info : Advanced Audio Codec
Format profile : HE-AAC / LC
Codec ID : 40
Duration : 2h 23mn
Source duration : 2h 23mn
Bit rate mode : Variable
Bit rate : 48.0 Kbps
Maximum bit rate : 53.3 Kbps
Channel(s) : 2 channels
Channel positions : Front: L R
Sampling rate : 44.1 KHz / 22.05 KHz
Compression mode : Lossy
Stream size : 49.3 MiB (9%)
Source stream size : 49.3 MiB

Скриншоты



[Профиль] [ЛС]
Показать сообщения:    
Ответить на тему

Текущее время: 26-Май 08:22

Часовой пояс: UTC + 1



Вы не можете начинать темы
Вы не можете отвечать на сообщения
Вы не можете редактировать свои сообщения
Вы не можете удалять свои сообщения
Вы не можете голосовать в опросах
Вы не можете прикреплять файлы к сообщениям
Вы не можете скачивать файлы