Alexander Povetkin vs. Mike Perez + Undercard / Александр Поветкин - Майк Перес + андеркарт [22.05.2015/Бойцовский клуб/MPEG-TS 576p/RU] :: Fight Tracker Russia

Alexander Povetkin vs. Mike Perez + Undercard / Александр Поветкин - Майк Перес + андеркарт [22.05.2015/Бойцовский клуб/MPEG-TS 576p/RU]

Ответить на тему
 
Автор Сообщение

Romapunk ®

Пол: Мужской

Стаж: 2 года 4 месяца

Сообщений: 505

Откуда: Вологодская область

Создавать темы 23-Май-2015 13:32

[Цитировать]


Описание: Alexander Povetkin vs. Mike Perez + Undercard / Александр Поветкин - Майк Перес + андеркарт
Дата проведения: 22.05.2015
Место проведения: Россия/Москва
Язык комментариев: Русский
Продолжительность: 05:12:00
Примечание: Первый бой не сначала и присутствует реклама между боями

Список поединков

8. тяжелый вес Grigory Drozd 39(27)-1(1)-0 vs Lukasz Janik 28(15)-2(1)-0
WBC World тяжелый вес титул
7. супертяжелый вес Alexander Povetkin 28(20)-1-0 vs Mike Perez 21(13)-1-1
WBC Silver супертяжелый вес титул
6. тяжелый вес Rakhim Chakhkiev 22(17)-1(1)-0 vs Junior Anthony Wright 13(11)-0-1
вакантный International Boxing Organization World тяжелый вес титул
5. супертяжелый вес Alex Leapai 30(24)-6(3)-3 vs Manuel Charr 27(16)-3(2)-0
4. тяжелый вес Dmitry Kudryashov 17(17)-0-0 vs Vikapita Meroro 28(14)-4-0
3. супер-легкий вес Svetlana Kulakova 9(1)-0-1 vs Marie Riederer 15(10)-2(1)-1
I18N_interim WBA World женский супер-легкий вес титул
2. полутяжелый вес Dmitry Bivol 2(2)-0-0 vs Joey Vegas 17(10)-10(4)-2
1. супер-полусредний вес Andrey Polyakov 0-7(4)- vs Ramzan Baysarov debut

Данные видео

General #12809
ID : 12809 (0x3209)
Complete name :Alexander Povetkin vs. Mike Perez + Undercard Александр Поветкин - Майк Перес + андеркарт.ts
Format : MPEG-TS
File size : 3.66 GiB
Duration : 5h 29mn
Overall bit rate : 1 588 Kbps
Video #69
ID : 69 (0x45)
Menu ID : 1 (0x1)
Format : AVC
Format/Info : Advanced Video Codec
Format profile : High@L3.0
Format settings, CABAC : Yes
Format settings, ReFrames : 4 frames
Codec ID : 27
Duration : 5h 29mn
Bit rate : 1 372 Kbps
Width : 720 pixels
Height : 576 pixels
Display aspect ratio : 4:3
Frame rate : 25.000 fps
Standard : PAL
Color space : YUV
Chroma subsampling : 4:2:0
Bit depth : 8 bits
Scan type : Progressive
Bits/(Pixel*Frame) : 0.132
Stream size : 3.18 GiB (87%)
Writing library : x264 core 124
Audio #68
ID : 68 (0x44)
Menu ID : 1 (0x1)
Format : MPEG Audio
Format version : Version 1
Format profile : Layer 3
Mode : Joint stereo
Mode extension : MS Stereo
Codec ID : 3
Duration : 5h 29mn
Bit rate mode : Constant
Bit rate : 128 Kbps
Channel(s) : 2 channels
Sampling rate : 44.1 KHz
Compression mode : Lossy
Delay relative to video : -120ms
Stream size : 302 MiB (8%)
Language : Russian

Скриншоты




[Профиль] [ЛС]
Показать сообщения:    
Ответить на тему

Текущее время: 24-Апр 00:38

Часовой пояс: UTC + 1



Вы не можете начинать темы
Вы не можете отвечать на сообщения
Вы не можете редактировать свои сообщения
Вы не можете удалять свои сообщения
Вы не можете голосовать в опросах
Вы не можете прикреплять файлы к сообщениям
Вы не можете скачивать файлы