World League of Fighting 17-05-2015

Ответить на тему
 
Автор Сообщение

Romapunk ®

Пол: Мужской

Стаж: 2 года 7 месяцев

Сообщений: 582

Откуда: Вологодская область

Создавать темы 20-Май-2015 19:44

[Цитировать]


Описание: World League of Fighting
Дата проведения: 17/05/2015
Место проведения: Китай
Язык комментариев: Китайский
Продолжительность: 01:20:47

Список поединков



Данные видео

General
Complete name : World League of Fighting 17-05-2015.mp4
Format : MPEG-4
Format profile : Base Media
Codec ID : isom
File size : 319 MiB
Duration : 1h 20mn
Overall bit rate mode : Variable
Overall bit rate : 551 Kbps
Video #1
ID : 1
Format : AVC
Format/Info : Advanced Video Codec
Format profile : High@L3.0
Format settings, CABAC : Yes
Format settings, ReFrames : 5 frames
Codec ID : avc1
Codec ID/Info : Advanced Video Coding
Duration : 1h 20mn
Source duration : 1h 20mn
Bit rate mode : Variable
Bit rate : 500 Kbps
Width : 576 pixels
Height : 432 pixels
Display aspect ratio : 4:3
Frame rate mode : Constant
Frame rate : 25.000 fps
Color space : YUV
Chroma subsampling : 4:2:0
Bit depth : 8 bits
Scan type : Progressive
Bits/(Pixel*Frame) : 0.080
Stream size : 289 MiB (91%)
Source stream size : 289 MiB
Audio #2
ID : 2
Format : AAC
Format/Info : Advanced Audio Codec
Format profile : HE-AAC / LC
Codec ID : 40
Duration : 1h 20mn
Source duration : 1h 20mn
Bit rate mode : Variable
Bit rate : 48.0 Kbps
Maximum bit rate : 52.5 Kbps
Channel(s) : 2 channels
Channel positions : Front: L R
Sampling rate : 44.1 KHz / 22.05 KHz
Compression mode : Lossy
Stream size : 27.7 MiB (9%)
Source stream size : 27.7 MiB

Скриншоты



[Профиль] [ЛС]
Показать сообщения:    
Ответить на тему

Текущее время: 28-Июл 12:02

Часовой пояс: UTC + 1



Вы не можете начинать темы
Вы не можете отвечать на сообщения
Вы не можете редактировать свои сообщения
Вы не можете удалять свои сообщения
Вы не можете голосовать в опросах
Вы не можете прикреплять файлы к сообщениям
Вы не можете скачивать файлы