Legend of Victor 17-05-2015 720p

Ответить на тему
 
Автор Сообщение

Romapunk ®

Пол: Мужской

Стаж: 2 года 10 месяцев

Сообщений: 740

Откуда: Вологодская область

Создавать темы 20-Май-2015 18:44

[Цитировать]


Описание: Legend of Victor
Дата проведения: 17/05/2015
Место проведения: Китай
Язык комментариев: Китайский
Продолжительность: 00:50:00

Список поединков



Данные видео

D:\З А Г Р У З К И С И Н Е Т А\Legend of Victor 17-05-2015 720p.mp4
General
Complete name : D:\З А Г Р У З К И С И Н Е Т А\Legend of Victor 17-05-2015 720p.mp4
Format : MPEG-4
Format profile : Base Media / Version 2
Codec ID : mp42
File size : 682 MiB
Duration : 50mn 0s
Overall bit rate mode : Variable
Overall bit rate : 1 908 Kbps
Encoded date : UTC 2015-05-10 02:42:17
Tagged date : UTC 2015-05-10 04:27:27
Writing application : HandBrake rev6275 2015032699
Video #1
ID : 1
Format : AVC
Format/Info : Advanced Video Codec
Format profile : High@L4.0
Format settings, CABAC : Yes
Format settings, ReFrames : 6 frames
Codec ID : avc1
Codec ID/Info : Advanced Video Coding
Duration : 50mn 0s
Bit rate mode : Variable
Bit rate : 1 800 Kbps
Width : 1 280 pixels
Height : 720 pixels
Display aspect ratio : 16:9
Frame rate mode : Constant
Frame rate : 25.000 fps
Color space : YUV
Chroma subsampling : 4:2:0
Bit depth : 8 bits
Scan type : Progressive
Bits/(Pixel*Frame) : 0.078
Stream size : 644 MiB (94%)
Writing library : Provided by x264 :: H.264/MPEG-4 AVC codec -V 1.6.08
Encoded date : UTC 2015-05-10 02:42:17
Tagged date : UTC 2015-05-10 04:27:27
Color primaries : BT.709-5, BT.1361, IEC 61966-2-4, SMPTE RP177
Transfer characteristics : BT.709-5, BT.1361
Matrix coefficients : BT.709-5, BT.1361, IEC 61966-2-4 709, SMPTE RP177
Audio #2
ID : 2
Format : AAC
Format/Info : Advanced Audio Codec
Format profile : LC
Codec ID : 40
Duration : 50mn 0s
Bit rate mode : Variable
Bit rate : 96.0 Kbps
Maximum bit rate : 102 Kbps
Channel(s) : 2 channels
Channel positions : Front: L R
Sampling rate : 44.1 KHz
Compression mode : Lossy
Stream size : 34.3 MiB (5%)
Encoded date : UTC 2015-05-10 02:42:17
Tagged date : UTC 2015-05-10 04:27:27

Скриншоты



[Профиль] [ЛС]

Superserafim

Пол: Мужской

Стаж: 2 года 10 месяцев

Сообщений: 2489

Создавать темы 20-Май-2015 23:39 (спустя 4 часа)

[Цитировать]

Круто! Спасибо!
[Профиль] [ЛС]

zorro

Пол: Женский

Стаж: 2 года 9 месяцев

Сообщений: 2089

Откуда: 圣塔芭芭拉

Создавать темы 21-Май-2015 03:09 (спустя 3 часа)

[Цитировать]

Спасибо! ЗАБИРАЮ
[Профиль] [ЛС]
Показать сообщения:    
Ответить на тему

Текущее время: 20-Ноя 01:10

Часовой пояс: UTC + 1



Вы не можете начинать темы
Вы не можете отвечать на сообщения
Вы не можете редактировать свои сообщения
Вы не можете удалять свои сообщения
Вы не можете голосовать в опросах
Вы не можете прикреплять файлы к сообщениям
Вы не можете скачивать файлы