MOBSTYLE 15th Anniversary Tour FIGHT & MOSH [03.05.2015/MMA/400p/JAP]

Ответить на тему
 
Автор Сообщение

Romapunk ®

Пол: Мужской

Стаж: 2 года 6 месяцев

Сообщений: 527

Откуда: Вологодская область

Создавать темы 20-Май-2015 14:49

[Цитировать]


Описание: MOBSTYLE 15th Anniversary Tour FIGHT & MOSH
Дата проведения: 03/05/2015
Место проведения: At Korakuen Hall, Токио,Япония
Язык комментариев: Японский
Продолжительность: 01:58:28

Список поединков

SHOOTO World Bantamweight (125 lbs) Championship Bout 5 min / 5R
Ryuichi Miki (Japan / CAVE) vs Masaaki Sugawara (Japan / Yotsukaido Sports Studio)
SHOOTO Pacific Rim Lightweight (145 lbs) Championship Bout 5 min / 3R
Yoshifumi "Junior" Nakamura (Japan / Mach Dojo) vs Yutaka Saito (Japan / Paraestra Koiwa)
Bantamweight (125 lbs) Bout 5 min / 3R
Mamoru (Japan / Shooting Gym Yokohama) vs Hiromasa Ogikubo (Japan / Paraestra Matsudo)
Featherweight (132 lbs) Bout 5 min / 3R
Yuta Nezu (Japan / Wajiutsu Keishu-kai Tokyo Dojo) vs Ken Asuka (Japan / Paraestra Matsudo)
Featherweight (132 lbs) Bout 5 min / 3R
Daiki Tsuchiya (Japan / roots) vs Shoko Sato (Japan / Sakaguchi Dojo)
Infinity League 2015 Official Featherweight (135 lbs) Bout 5 min / 2R
Makoto (Japan / K'z Factory) vs Takuya Ogura (Japan / Sky Fist)
Infinity League Rookie Tournament Bantamweight (125 lbs) Opening Round Bout 5 min / 2R
Ryo Mizuno (Japan / roots) vs Musashi Nakasone (Japan / The Paraestra Okinawa)

Данные видео

General
Complete name :MOBSTYLES Fight and Mosh 5.3.15 .mp4
Format : MPEG-4
Format profile : Base Media
Codec ID : isom
File size : 2.29 GiB
Duration : 1h 58mn
Overall bit rate : 2 771 Kbps
Encoded date : UTC 2015-05-17 15:26:39
Tagged date : UTC 2015-05-17 15:26:39
Video #2
ID : 2
Format : AVC
Format/Info : Advanced Video Codec
Format profile : Baseline@L3.0
Format settings, CABAC : No
Format settings, ReFrames : 1 frame
Format settings, GOP : M=1, N=25
Muxing mode : Container profile=Baseline@4.1
Codec ID : avc1
Codec ID/Info : Advanced Video Coding
Duration : 1h 58mn
Bit rate : 2 576 Kbps
Width : 720 pixels
Height : 400 pixels
Display aspect ratio : 16:9
Frame rate mode : Constant
Frame rate : 29.970 fps
Original frame rate : 29.000 fps
Color space : YUV
Chroma subsampling : 4:2:0
Bit depth : 8 bits
Scan type : Progressive
Bits/(Pixel*Frame) : 0.298
Stream size : 2.13 GiB (93%)
Language : English
Audio #1
ID : 1
Format : AAC
Format/Info : Advanced Audio Codec
Format profile : LC
Codec ID : 40
Duration : 1h 58mn
Bit rate mode : Constant
Bit rate : 192 Kbps
Channel(s) : 2 channels
Channel positions : Front: L R
Sampling rate : 48.0 KHz
Compression mode : Lossy
Stream size : 161 MiB (7%)
Language : English

Скриншоты



[Профиль] [ЛС]

Superserafim

Пол: Мужской

Стаж: 2 года 6 месяцев

Сообщений: 2243

Создавать темы 20-Май-2015 15:41 (спустя 52 минуты)

[Цитировать]

Отлично!
Спасибо за раздачу!
Вот и пошел процесс! ;)
[Профиль] [ЛС]

Romapunk ®

Пол: Мужской

Стаж: 2 года 6 месяцев

Сообщений: 527

Откуда: Вологодская область

Создавать темы 20-Май-2015 15:44 (спустя 3 минуты)

[Цитировать]

1236Отлично!
Спасибо за раздачу!
Вот и пошел процесс! ;)
Это знаешь как в анекдоте:"Долго ли умеючи...Умеючи то долго!)
[Профиль] [ЛС]
Показать сообщения:    
Ответить на тему

Текущее время: 25-Июн 15:00

Часовой пояс: UTC + 1



Вы не можете начинать темы
Вы не можете отвечать на сообщения
Вы не можете редактировать свои сообщения
Вы не можете удалять свои сообщения
Вы не можете голосовать в опросах
Вы не можете прикреплять файлы к сообщениям
Вы не можете скачивать файлы