Wu Lin Feng 16-05-2015

Ответить на тему
 
Автор Сообщение

Romapunk ®

Пол: Мужской

Стаж: 2 года 8 месяцев

Сообщений: 644

Откуда: Вологодская область

Создавать темы 20-Май-2015 09:54

[Цитировать]


Описание: Wu Lin Feng
Дата проведения: 16/05/2015
Место проведения: Китай
Язык комментариев: Китайский
Продолжительность: 00:50:07

Список поединков




Данные видео

General
Complete name : Wu Lin Feng 16-05-2015.mp4
Format : MPEG-4
Format profile : Base Media
Codec ID : isom
File size : 198 MiB
Duration : 50mn 7s
Overall bit rate mode : Variable
Overall bit rate : 552 Kbps
Video #1
ID : 1
Format : AVC
Format/Info : Advanced Video Codec
Format profile : High@L3.0
Format settings, CABAC : Yes
Format settings, ReFrames : 5 frames
Codec ID : avc1
Codec ID/Info : Advanced Video Coding
Duration : 50mn 7s
Bit rate mode : Variable
Bit rate : 500 Kbps
Width : 576 pixels
Height : 432 pixels
Display aspect ratio : 4:3
Frame rate mode : Constant
Frame rate : 25.000 fps
Color space : YUV
Chroma subsampling : 4:2:0
Bit depth : 8 bits
Scan type : Progressive
Bits/(Pixel*Frame) : 0.080
Stream size : 179 MiB (91%)
Audio #2
ID : 2
Format : AAC
Format/Info : Advanced Audio Codec
Format profile : HE-AAC / LC
Codec ID : 40
Duration : 50mn 7s
Source duration : 50mn 7s
Bit rate mode : Variable
Bit rate : 48.0 Kbps
Maximum bit rate : 52.1 Kbps
Channel(s) : 2 channels
Channel positions : Front: L R
Sampling rate : 44.1 KHz / 22.05 KHz
Compression mode : Lossy
Stream size : 17.2 MiB (9%)
Source stream size : 17.2 MiB

Скриншоты





Последний раз редактировалось: Romapunk (2015-05-20 12:07), всего редактировалось 3 раз(а)
[Профиль] [ЛС]

Romapunk ®

Пол: Мужской

Стаж: 2 года 8 месяцев

Сообщений: 644

Откуда: Вологодская область

Создавать темы 20-Май-2015 09:57 (спустя 3 минуты)

[Цитировать]

Ребзя,первая моя раздача.Не зудите строго) Будем потихоньку учиться)
[Профиль] [ЛС]

zorro

Пол: Женский

Стаж: 2 года 7 месяцев

Сообщений: 1988

Откуда: 圣塔芭芭拉

Создавать темы 20-Май-2015 10:40 (спустя 42 минуты)

[Цитировать]

Поздравляю с первой раздачей! Спасибо!
[Профиль] [ЛС]

karchik

Пол: Мужской

Стаж: 2 года 8 месяцев

Сообщений: 1930

Откуда: Уругвай

Создавать темы 20-Май-2015 10:44 (спустя 3 минуты)

[Цитировать]

Отлично.Спасибо. Только скрины немного нужно изменить.Должны быть такого же размера как и видео. Вот такие примерно
Width : 576 pixels
Height : 432 pixels
[Профиль] [ЛС]

Romapunk ®

Пол: Мужской

Стаж: 2 года 8 месяцев

Сообщений: 644

Откуда: Вологодская область

Создавать темы 20-Май-2015 10:48 (спустя 3 минуты)

[Цитировать]

1230Отлично.Спасибо. Только скрины немного нужно изменить.Должны быть такого же размера как и видео. Вот такие примерно
Width : 576 pixels
Height : 432 pixels
Ну так я специально сделал так.Формат видео 4:3.Чтобы было понятно.
[Профиль] [ЛС]

Romapunk ®

Пол: Мужской

Стаж: 2 года 8 месяцев

Сообщений: 644

Откуда: Вологодская область

Создавать темы 20-Май-2015 10:52 (спустя 4 минуты)

[Цитировать]

А,понял.
[Профиль] [ЛС]

Superserafim

Пол: Мужской

Стаж: 2 года 8 месяцев

Сообщений: 2432

Создавать темы 20-Май-2015 11:01 (спустя 8 минут)

[Цитировать]

Спасибо за раздачу!
С почином!!
Ждем продолжения!
[Профиль] [ЛС]
Показать сообщения:    
Ответить на тему

Текущее время: 19-Сен 18:20

Часовой пояс: UTC + 1



Вы не можете начинать темы
Вы не можете отвечать на сообщения
Вы не можете редактировать свои сообщения
Вы не можете удалять свои сообщения
Вы не можете голосовать в опросах
Вы не можете прикреплять файлы к сообщениям
Вы не можете скачивать файлы