Manny / Мэнни [2014, МАТЧ-ТВ, RUS, SATRip]

Ответить на тему
 
Автор Сообщение

Garik50cent ®

Пол: Не указан

Стаж: 2 года 7 месяцев

Сообщений: 11

Создавать темы 12-Май-2017 08:16

[Цитировать]

Manny / Мэнни-Описание:
Документальный биографический фильм, повествующий о жизни и карьере выдающегося филиппинского боксера, чемпиона мира в восьми весовых категориях, Мэнни Пакьяо. Это история о любителе, которому хватило сил, терпения и веры в себя, чтобы стать профессионалом. Это история о мальчишке из бедной семьи, который сделал все, чтобы его близкие выкарабкались из нищеты. Это история о том, чье призвание — победа. Всего Пакьяо провел 64 боя, в 57 из которых одержал верх. В свою очередь в 38 боях из 57 он отправил соперника в нокаут. На его счету всего лишь 5 поражений и 2 ничьих.
В главных ролях: Джимми Киммел, Лиам Нисон, Jinkee Pacquiao, Мэнни Пакьяо, Джереми Пивен, Фредди Роач, Марк Уолберг и др.
-Качество видео: SATRip
Язык комментариев: Русский (МАТЧ ТВ)
Формат: mkv
Видео: 1047x576, MPEG4-AVC/H.264, 25 fps, 2495kbps
Аудио: AC3, 48 kHz, 2 ch, 192 kbps

Продолжительность

1:19:52

Тех.характеристики

General
Unique ID : 240153636917249331268330431470009998322 (0xB4ABE876920FB3DFA68D27D38F1E5BF2)
Complete name : Manny.2014.MATCH_TV.RUS.SATRip.mkv
Format : Matroska
Format version : Version 4 / Version 2
File size : 1.53 GiB
Duration : 1h 19mn
Overall bit rate : 2 741 Kbps
Encoded date : UTC 2017-05-11 12:23:46
Writing application : mkvmerge v6.9.1 ('Blue Panther') 32bit built on Apr 18 2014 18:15:44
Writing library : libebml v1.3.0 + libmatroska v1.4.1
Video
ID : 1
Format : AVC
Format/Info : Advanced Video Codec
Format profile : Main@L3.0
Format settings, CABAC : Yes
Format settings, ReFrames : 3 frames
Codec ID : V_MPEG4/ISO/AVC
Duration : 1h 19mn
Bit rate : 2 495 Kbps
Width : 720 pixels
Height : 576 pixels
Display aspect ratio : 16:9
Frame rate mode : Constant
Frame rate : 25.000 fps
Standard : Component
Color space : YUV
Chroma subsampling : 4:2:0
Bit depth : 8 bits
Scan type : MBAFF
Bits/(Pixel*Frame) : 0.241
Stream size : 1.39 GiB (91%)
Title : Manny 2014 SATRip
Language : English
Default : Yes
Forced : No
Color primaries : BT.601 PAL
Transfer characteristics : BT.470 System B, BT.470 System G
Matrix coefficients : BT.601
Audio
ID : 2
Format : AC-3
Format/Info : Audio Coding 3
Mode extension : CM (complete main)
Format settings, Endianness : Big
Codec ID : A_AC3
Duration : 1h 19mn
Bit rate mode : Constant
Bit rate : 192 Kbps
Channel(s) : 2 channels
Channel positions : Front: L R
Sampling rate : 48.0 KHz
Bit depth : 16 bits
Compression mode : Lossy
Delay relative to video : -22ms
Stream size : 110 MiB (7%)
Title : МАТЧ ТВ
Language : Russian
Default : Yes
Forced : No

Скриншоты

-ПРОСЬБА! ОСТАВАЙТЕСЬ НА РАЗДАЧЕ КАК МОЖНО ДОЛЬШЕ! СПАСИБО! :)
[Профиль] [ЛС]

karchik

Пол: Мужской

Стаж: 2 года 7 месяцев

Сообщений: 1840

Откуда: Уругвай

Создавать темы 13-Май-2017 13:28 (спустя 1 день 5 часов)

[Цитировать]

Спасибо за фильмец.Но что-то не качается. Сайт пишет что есть на раздаче.
Пошло уже . Сорри.
[Профиль] [ЛС]

skameykin22

Пол: Мужской

Стаж: 4 дня

Сообщений: 1

Откуда: Санкт-Петербург

Создавать темы 24-Июл-2017 12:11 (спустя 2 месяца 10 дней)

[Цитировать]

Да, что не скачивается. Надо подправить.
[Профиль] [ЛС]
Показать сообщения:    
Ответить на тему

Текущее время: 28-Июл 12:00

Часовой пояс: UTC + 1



Вы не можете начинать темы
Вы не можете отвечать на сообщения
Вы не можете редактировать свои сообщения
Вы не можете удалять свои сообщения
Вы не можете голосовать в опросах
Вы не можете прикреплять файлы к сообщениям
Вы не можете скачивать файлы