XFC International 9: Nascimento vs. Azevedo (Main Card) [15.03.2015, MMA, WEBRip 406, POR] :: Fight Tracker Russia

XFC International 9: Nascimento vs. Azevedo (Main Card) [15.03.2015, MMA, WEBRip 406, POR]

Ответить на тему
 
Автор Сообщение

plarin ®

Пол: Мужской

Стаж: 2 года 4 месяца

Сообщений: 602

Откуда: Мадрид

Создавать темы 17-Мар-2015 10:56

[Цитировать]

XFC International 9: Nascimento vs. Azevedo (Main Card)- Год выпуска: 15.03.2015
Вид спорта: MMA
Продолжительность: 1:52:15
Язык комментариев: Португальский-Описание: Главные бои турнира "XFC International 9: Nascimento vs. Azevedo", прошедшего 15 марта 2015 года в "Ginasio do Sao Paulo Futebol Club", Сан-Паулу, Бразилия.-Автор рипа/записи: FightCreature-Качество: WEBRip
Формат: MP4
Видео: 720x406 (16:9), 29,970 fps, H264, ~1100 kbps avg, ~0.080 bit/pixel
Аудио: 48 kHz, AAC, 2/0 (L,R) ch, ~96.00 kbps avg-

Скриншоты

Кард

[56kg] Allan Nascimento vs. Bruno Azevedo *XFC Flyweight Championship
[56kg] Antonia Silvaneide vs. Poliana Botelho *XFCi Womens Flyweight Tournament Final
[77kg] Gennadiy Kovalev vs. Will Galvão
[56kg] Julia Berezikova vs. Juliana Werner

MediaInfo

General
Complete name : E:\uTorrent.Temp\Temp\XFC.International.9.StreamRip-FightCreature.mp4
Format : MPEG-4
Format profile : Base Media
Codec ID : isom
File size : 677 MiB
Duration : 1h 52mn
Overall bit rate mode : Variable
Overall bit rate : 843 Kbps
Writing application : Lavf55.41.100
Video
ID : 1
Format : AVC
Format/Info : Advanced Video Codec
Format profile : High@L3.0
Format settings, CABAC : Yes
Format settings, ReFrames : 4 frames
Codec ID : avc1
Codec ID/Info : Advanced Video Coding
Duration : 1h 52mn
Bit rate : 699 Kbps
Width : 720 pixels
Height : 406 pixels
Display aspect ratio : 16:9
Original display aspect rat : 16:9
Frame rate mode : Constant
Frame rate : 29.970 fps
Color space : YUV
Chroma subsampling : 4:2:0
Bit depth : 8 bits
Scan type : Progressive
Bits/(Pixel*Frame) : 0.080
Stream size : 561 MiB (83%)
Writing library : x264 core 142 r2431 f23da7c
Encoding settings : cabac=1 / ref=3 / deblock=1:0:0 / analyse=0x3:0x113 / me=hex / subme=7 / psy=1 / psy_rd=1.00:0.00 / mixed_ref=1 / me_range=16 / chroma_me=1 / trellis=1 / 8x8dct=1 / cqm=0 / deadzone=21,11 / fast_pskip=1 / chroma_qp_offset=-2 / threads=4 / lookahead_threads=1 / sliced_threads=0 / nr=0 / decimate=1 / interlaced=0 / bluray_compat=0 / constrained_intra=0 / bframes=3 / b_pyramid=2 / b_adapt=1 / b_bias=0 / direct=1 / weightb=1 / open_gop=0 / weightp=2 / keyint=250 / keyint_min=25 / scenecut=40 / intra_refresh=0 / rc_lookahead=40 / rc=crf / mbtree=1 / crf=22.0 / qcomp=0.60 / qpmin=0 / qpmax=69 / qpstep=4 / vbv_maxrate=700 / vbv_bufsize=1835 / crf_max=0.0 / nal_hrd=none / filler=0 / ip_ratio=1.40 / aq=1:1.00
Tagged date : UTC 2015-03-15 12:27:24
Audio
ID : 2
Format : AAC
Format/Info : Advanced Audio Codec
Format profile : LC
Codec ID : 40
Duration : 1h 52mn
Bit rate mode : Variable
Bit rate : 96.0 Kbps
Maximum bit rate : 700 Kbps
Channel(s) : 2 channels
Channel positions : Front: L R
Sampling rate : 48.0 KHz
Compression mode : Lossy
Stream size : 77.1 MiB (11%)
Tagged date : UTC 2015-03-15 12:27:24
[Профиль] [ЛС]
Показать сообщения:    
Ответить на тему

Текущее время: 23-Апр 18:54

Часовой пояс: UTC + 1



Вы не можете начинать темы
Вы не можете отвечать на сообщения
Вы не можете редактировать свои сообщения
Вы не можете удалять свои сообщения
Вы не можете голосовать в опросах
Вы не можете прикреплять файлы к сообщениям
Вы не можете скачивать файлы